<?xml version="1.0" standalone="no"?>
<!DOCTYPE svg PUBLIC "-//W3C//DTD SVG 1.1//EN" "http://www.w3.org/Graphics/SVG/1.1/DTD/svg11.dtd" >
<svg xmlns="http://www.w3.org/2000/svg" xmlns:xlink="http://www.w3.org/1999/xlink" version="1.1">
<metadata>
Created by FontForge 20200314 at Thu Oct 29 09:17:59 2020
 By Jason Otero
Copyright (c) Font Awesome
</metadata>
<!-- Font Awesome Pro 6.0.0-alpha1 by @fontawesome - https://fontawesome.com License - https://fontawesome.com/license (Commercial License) --><defs>
<font id="FontAwesome6Pro-Regular" horiz-adv-x="512" >
  <font-face 
    font-family="Font Awesome 6 Pro Regular"
    font-weight="400"
    font-stretch="normal"
    units-per-em="512"
    panose-1="2 0 5 3 0 0 0 0 0 0"
    ascent="448"
    descent="-64"
    bbox="-2976 -96 2048 495.75"
    underline-thickness="25"
    underline-position="-50"
    unicode-range="U+0020-F8FF"
  />
    <missing-glyph />
    <glyph glyph-name="caravan-simple" unicode="&#xe000;" horiz-adv-x="640" 
d="M416 320c18 0 32 -14 32 -32v-64c0 -18 -14 -32 -32 -32h-64c-18 0 -32 14 -32 32v64c0 18 14 32 32 32h64zM616 80c13 0 24 -11 24 -24v0c0 -13 -11 -24 -24 -24h-328c0 -53 -43 -96 -96 -96s-96 43 -96 96c-53 0 -96 43 -96 96v192c0 53 43 96 96 96h320
c88 0 160 -72 160 -160v-176h40zM192 -16c26 0 48 22 48 48s-22 48 -48 48s-48 -22 -48 -48s22 -48 48 -48zM528 80v176c0 62 -50 112 -112 112h-320c-26 0 -48 -22 -48 -48v-192c0 -26 22 -48 48 -48h13c17 29 48 48 83 48s66 -19 83 -48h253zM256 320c18 0 32 -14 32 -32
v-64c0 -18 -14 -32 -32 -32h-128c-18 0 -32 14 -32 32v64c0 18 14 32 32 32h128z" />
    <glyph glyph-name="cat-space" unicode="&#xe001;" horiz-adv-x="640" 
d="M187 363l-40 16c-2 1 -3 3 -3 5s1 4 3 5l40 16l16 40c1 2 3 3 5 3s4 -1 5 -3l16 -40l40 -16c2 -1 3 -3 3 -5s-1 -4 -3 -5l-40 -16l-16 -40c-1 -2 -3 -3 -5 -3s-4 1 -5 3zM448 448c97 0 176 -79 176 -176c0 -75 -47 -138 -112 -164v-124c0 -26 -22 -48 -48 -48h-32
c-26 0 -48 22 -48 48v70l-82 -48c1 -7 2 -15 2 -22h16c18 0 32 -14 32 -32c0 -4 -2 -8 -5 -11s-7 -5 -11 -5h-184c-49 0 -88 39 -88 113v212c0 22 -17 44 -39 43c-9 0 -17 4 -22 12c-4 7 -4 16 0 24c4 7 12 12 21 12c49 0 88 -39 88 -88v-93c37 51 94 86 160 97v4
c0 97 79 176 176 176zM448 400c-26 0 -52 -8 -73 -23l41 -41h64l41 41c-21 15 -47 23 -73 23zM504 272c0 4 -2 8 -5 11s-7 5 -11 5c-9 0 -16 -7 -16 -16s7 -16 16 -16s16 7 16 16zM424 272c0 4 -2 8 -5 11s-7 5 -11 5c-9 0 -16 -7 -16 -16s7 -16 16 -16s16 7 16 16zM287 53
l95 56c-49 20 -87 61 -102 112c-98 -16 -168 -98 -168 -197c0 -22 18 -40 40 -40h104c-1 36 -19 70 -48 91c-6 5 -8 15 -4 22l7 13c5 8 15 11 23 6c23 -16 41 -38 53 -63zM464 -16v113c-12 -1 -24 -1 -36 0c3 -5 4 -10 4 -15v-98h32zM448 144c71 0 128 57 128 128
c0 32 -12 61 -32 84v-84c0 -53 -43 -96 -96 -96s-96 43 -96 96v84c-20 -23 -32 -52 -32 -84c0 -71 57 -128 128 -128z" />
    <glyph glyph-name="coffee-pot" unicode="&#xe002;" 
d="M428 273c52 -40 84 -102 84 -170c0 -51 -19 -85 -50 -118c-11 -11 -26 -17 -41 -17h-266c-16 0 -30 6 -41 18c-31 33 -50 66 -50 117c0 69 33 130 84 170l-34 95h-26c-22 0 -40 -18 -40 -40v-80c0 -13 -11 -24 -24 -24v0c-13 0 -24 11 -24 24v80c0 49 39 88 88 88h392z
M411 368h-246l29 -80h188zM114 128h348c-7 46 -33 86 -70 112h-206c-38 -26 -65 -66 -72 -112z" />
    <glyph glyph-name="comet" unicode="&#xe003;" 
d="M308 184c6 -1 10 -4 11 -9c2 -5 0 -10 -3 -14l-44 -43l10 -61c1 -5 -1 -10 -5 -13s-10 -3 -14 -1l-55 29l-55 -29c-4 -2 -10 -2 -14 1s-6 8 -5 13l10 61l-44 43c-4 4 -5 9 -3 14c1 5 5 8 11 9l61 9l27 56c2 4 7 7 12 7s10 -3 12 -7l27 -56zM502 438c9 -8 12 -21 9 -33
c-9 -28 -30 -95 -53 -153c11 -4 19 -12 23 -22c3 -11 3 -22 -2 -32c-22 -42 -80 -146 -137 -203c-78 -79 -205 -79 -283 0c-79 78 -79 205 0 283c57 57 161 115 203 137c10 5 22 6 32 2s18 -12 22 -23c58 23 125 44 153 53c12 3 25 0 33 -9zM431 210c-6 2 -9 3 -38 11l11 25
c21 48 40 108 53 147c-39 -13 -99 -32 -147 -53l-25 -11c-6 23 -8 30 -11 38c-40 -21 -132 -73 -181 -123c-60 -59 -60 -156 0 -215c28 -29 67 -45 108 -45c40 0 79 16 107 45c49 48 99 137 123 181z" />
    <glyph glyph-name="fan-table" unicode="&#xe004;" horiz-adv-x="448" 
d="M354 182l-97 16c4 -20 0 -42 -10 -60c-24 -42 -78 -56 -120 -32c-6 4 -13 16 -5 27l63 76c-53 18 -64 71 -55 105c6 22 20 41 40 53c13 7 23 -2 26 -9l34 -92c26 22 63 26 94 12s50 -45 50 -79c0 -5 -2 -10 -6 -13c-4 -4 -9 -5 -14 -4zM224 208c9 0 16 7 16 16
s-7 16 -16 16s-16 -7 -16 -16s7 -16 16 -16zM360 -16c13 0 24 -11 24 -24s-11 -24 -24 -24h-272c-13 0 -24 11 -24 24s11 24 24 24h112v17c-112 12 -200 107 -200 223c0 124 100 224 224 224s224 -100 224 -224c0 -116 -88 -211 -200 -223v-17h112zM48 224
c0 -97 79 -176 176 -176s176 79 176 176s-79 176 -176 176s-176 -79 -176 -176z" />
    <glyph glyph-name="faucet" unicode="&#xe005;" 
d="M512 80v-32c0 -26 -22 -48 -48 -48h-64c-26 0 -48 22 -48 48v16h-29c-23 -29 -59 -48 -99 -48s-76 19 -99 48h-101c-13 0 -24 11 -24 24s11 24 24 24h127c12 -29 41 -48 73 -48s61 19 73 48h71c18 0 32 -14 32 -32v-32h64v32c0 53 -43 96 -96 96h-71
c-12 29 -41 48 -73 48s-61 -19 -73 -48h-127c-13 0 -24 11 -24 24s11 24 24 24h101c18 23 45 40 75 46v30s-119 -12 -120 -12c-9 0 -16 7 -16 17v30c0 10 7 17 16 17c1 0 -6 1 120 -13v29c0 9 7 16 16 16h16c9 0 16 -7 16 -16v-29c126 14 119 13 120 13c9 0 16 -7 16 -17
v-30c0 -10 -7 -17 -16 -17c-1 0 -120 12 -120 12v-30c30 -6 57 -23 75 -46h45c80 0 144 -64 144 -144z" />
    <glyph glyph-name="faucet-drip" unicode="&#xe006;" 
d="M416 -32c0 18 32 64 32 64s32 -46 32 -64s-14 -32 -32 -32s-32 14 -32 32zM368 288c80 0 144 -64 144 -144v-32c0 -26 -22 -48 -48 -48h-64c-26 0 -48 22 -48 48v16h-29c-23 -29 -59 -48 -99 -48s-76 19 -99 48h-101c-13 0 -24 11 -24 24v0c0 13 11 24 24 24h127
c12 -29 41 -48 73 -48s61 19 73 48h71c18 0 32 -14 32 -32v-32h64v32c0 53 -43 96 -96 96h-71c-12 29 -41 48 -73 48s-61 -19 -73 -48h-127c-13 0 -24 11 -24 24v0c0 13 11 24 24 24h101c18 23 45 40 75 46v30s-119 -12 -120 -12c-9 0 -16 7 -16 17v30c0 10 7 17 16 17
c1 0 -6 1 120 -13v29c0 9 7 16 16 16h16c9 0 16 -7 16 -16v-29c126 14 119 13 120 13c9 0 16 -7 16 -17v-30c0 -10 -7 -17 -16 -17c-1 0 -120 12 -120 12v-30c30 -6 57 -23 75 -46h45z" />
    <glyph glyph-name="galaxy" unicode="&#xe008;" 
d="M506 181c6 -22 7 -44 5 -67c-2 -17 -14 -30 -31 -32c-16 -3 -33 6 -39 21c-10 22 -26 40 -46 51c2 -20 1 -40 -3 -61c-15 -73 -74 -134 -147 -151c-15 -4 -31 -6 -47 -6c-7 0 -13 0 -20 1c-17 2 -30 14 -32 31c-3 17 6 33 21 39c22 10 40 26 51 46c-20 -2 -41 -1 -61 3
c-73 15 -134 74 -151 147c-6 22 -7 44 -5 67c1 16 14 30 31 32c16 3 33 -6 39 -21c10 -22 26 -40 46 -51c-2 20 -1 40 3 61c15 73 74 134 147 152c22 5 44 6 67 4c17 -1 30 -14 32 -31c3 -17 -6 -33 -21 -39c-22 -10 -40 -26 -51 -46c20 2 41 1 61 -3
c73 -15 134 -74 151 -147v0zM366 214c37 -6 71 -25 96 -54c-11 62 -60 110 -117 121c-26 5 -54 3 -80 -5c-8 -3 -16 -1 -23 4c-6 5 -9 14 -8 22c6 38 25 72 54 96c-63 -11 -110 -60 -121 -117c-5 -26 -4 -54 5 -80c3 -7 1 -16 -4 -23c-5 -6 -14 -9 -22 -8
c-38 6 -72 25 -96 54c11 -62 60 -110 117 -121c26 -5 54 -3 80 5c7 3 16 1 23 -4c6 -5 9 -14 8 -22c-6 -38 -25 -72 -54 -96c63 11 109 60 121 117c5 26 3 54 -5 80c-3 7 -1 16 4 23c5 6 14 9 22 8zM256 232c22 0 40 -18 40 -40s-18 -40 -40 -40s-40 18 -40 40s18 40 40 40z
" />
    <glyph glyph-name="garage" unicode="&#xe009;" horiz-adv-x="640" 
d="M598 335c25 -11 42 -36 42 -64v-314c0 -14 -11 -24 -24 -24s-24 10 -24 24v314c0 9 -5 16 -13 19l-251 105c-5 2 -11 2 -16 0l-251 -105c-8 -3 -13 -10 -13 -19v-314c0 -14 -11 -24 -24 -24s-24 10 -24 24v314c0 28 17 53 42 64l252 104c16 7 36 7 52 0zM504 253
c22 0 40 -18 40 -40v-256c0 -14 -11 -24 -24 -24s-24 10 -24 24v120h-352v-120c0 -14 -11 -24 -24 -24s-24 10 -24 24v256c0 22 18 40 40 40h368zM496 125v80h-352v-80h352zM360 29c13 0 24 -11 24 -24c0 -14 -11 -24 -24 -24h-80c-13 0 -24 10 -24 24c0 13 11 24 24 24h80z
" />
    <glyph glyph-name="garage-car" unicode="&#xe00a;" horiz-adv-x="640" 
d="M504 253c22 0 40 -18 40 -40v-256c0 -14 -11 -24 -24 -24s-24 10 -24 24v248h-352v-248c0 -14 -11 -24 -24 -24s-24 10 -24 24v256c0 22 18 40 40 40h368zM430 93c20 -10 34 -31 34 -55v-16c0 -14 -6 -27 -16 -36v-29c0 -14 -11 -24 -24 -24s-24 10 -24 24v16h-160v-16
c0 -14 -11 -24 -24 -24s-24 10 -24 24v29c-10 9 -16 22 -16 36v16c0 24 14 45 34 55l16 49c8 23 29 39 53 39h82c24 0 45 -16 53 -39zM271 127l-8 -26h114l-8 26c-2 3 -5 6 -8 6h-82c-3 0 -6 -3 -8 -6zM416 22v16c0 8 -6 15 -14 15h-164c-8 0 -14 -7 -14 -15v-16l190 -1
c1 0 2 0 2 1zM598 335c25 -11 42 -36 42 -64v-314c0 -14 -11 -24 -24 -24s-24 10 -24 24v314c0 9 -5 16 -13 19l-251 105c-5 2 -11 2 -16 0l-251 -105c-8 -3 -13 -10 -13 -19v-314c0 -14 -11 -24 -24 -24s-24 10 -24 24v314c0 28 17 53 42 64l252 104c16 7 36 7 52 0z" />
    <glyph glyph-name="garage-open" unicode="&#xe00b;" horiz-adv-x="640" 
d="M598 335c25 -11 42 -36 42 -64v-314c0 -14 -11 -24 -24 -24s-24 10 -24 24v314c0 9 -5 16 -13 19l-251 105c-5 2 -11 2 -16 0l-251 -105c-8 -3 -13 -10 -13 -19v-314c0 -14 -11 -24 -24 -24s-24 10 -24 24v314c0 28 17 53 42 64l252 104c16 7 36 7 52 0zM504 253
c22 0 40 -18 40 -40v-256c0 -14 -11 -24 -24 -24s-24 10 -24 24v168h-352v-168c0 -14 -11 -24 -24 -24s-24 10 -24 24v256c0 22 18 40 40 40h368zM496 173v32h-352v-32h352zM402 101c34 0 62 -28 62 -63v-16c0 -14 -6 -27 -16 -36v-29c0 -14 -11 -24 -24 -24s-24 10 -24 24
v16h-160v-16c0 -14 -11 -24 -24 -24s-24 10 -24 24v29c-10 9 -16 22 -16 36v16c0 35 28 63 62 63h164zM416 22v16c0 8 -6 15 -14 15h-164c-8 0 -14 -7 -14 -15v-16l190 -1c1 0 2 0 2 1z" />
    <glyph glyph-name="heat" unicode="&#xe00c;" horiz-adv-x="448" 
d="M48 292c0 -37 15 -73 41 -99c36 -35 55 -83 55 -133v-68c0 -13 -11 -24 -24 -24s-24 11 -24 24v68c0 37 -15 73 -41 99c-36 35 -55 83 -55 133v36c0 13 11 24 24 24s24 -11 24 -24v-36zM393 193c36 -35 55 -83 55 -133v-68c0 -13 -11 -24 -24 -24s-24 11 -24 24v68
c0 37 -15 73 -41 99c-36 35 -55 83 -55 133v36c0 13 11 24 24 24s24 -11 24 -24v-36c0 -37 15 -73 41 -99zM200 292c0 -37 15 -73 41 -99c36 -36 55 -83 55 -133v-68c0 -13 -11 -24 -24 -24s-24 11 -24 24v68c0 37 -15 73 -41 99c-36 35 -55 83 -55 133v100
c0 13 11 24 24 24s24 -11 24 -24v-100z" />
    <glyph glyph-name="house" unicode="&#xe00d;" horiz-adv-x="576" 
d="M208 238c0 22 18 40 40 40h80c22 0 40 -18 40 -40v-80c0 -22 -18 -40 -40 -40h-80c-22 0 -40 18 -40 40v80zM256 230v-64h64v64h-64zM568 224c10 -9 11 -24 2 -34c-4 -5 -11 -8 -18 -8c-5 0 -11 2 -16 5l-24 21v-202c0 -36 -29 -64 -64 -64h-320c-35 0 -64 28 -64 64v202
l-24 -21c-11 -8 -26 -7 -34 3c-9 10 -8 25 2 34l264 224c9 8 23 8 32 0l160 -136v86c0 13 11 24 24 24s24 -11 24 -24v-127zM464 6v243l-176 149l-177 -150c1 -1 1 -1 1 -2v-240c0 -9 7 -16 16 -16h320c9 0 16 7 16 16z" />
    <glyph glyph-name="house-day" unicode="&#xe00e;" horiz-adv-x="640" 
d="M352 144c0 9 7 16 16 16h64c9 0 16 -7 16 -16v-64c0 -9 -7 -16 -16 -16h-64c-9 0 -16 7 -16 16v64zM632 154c10 -9 11 -24 2 -34c-5 -5 -11 -8 -18 -8c-6 0 -11 2 -16 6l-24 21v-155c0 -26 -22 -48 -48 -48h-256c-26 0 -48 22 -48 48v155l-24 -21c-10 -9 -25 -8 -34 2
s-8 25 2 34l216 192c9 8 23 8 32 0l112 -100v50c0 13 11 24 24 24s24 -11 24 -24v-92zM528 -16v198l-128 114l-128 -114v-198h256zM128 272c0 26 22 48 48 48s48 -22 48 -48s-22 -48 -48 -48s-48 22 -48 48zM122 225c13 -14 30 -23 50 -25l-25 -22c-3 -3 -6 -6 -8 -9
l-75 -24c-5 -2 -9 -1 -12 2c-4 4 -5 8 -3 13l23 69l-65 32c-5 2 -7 6 -7 11s2 9 7 11l65 32l-23 69c-2 5 -1 9 3 12c3 4 7 5 12 3l69 -23l32 65c2 5 6 7 11 7s9 -2 11 -7l32 -65l69 23c5 2 9 0 12 -3c4 -3 5 -7 3 -12l-30 -94l-26 -23c1 2 1 3 1 5c0 40 -32 72 -72 72
s-72 -32 -72 -72c0 -5 1 -9 1 -14c1 -2 2 -4 2 -6c1 -2 1 -4 2 -6c1 -3 3 -6 4 -8c1 -1 1 -3 2 -4c2 -3 4 -6 6 -8z" />
    <glyph glyph-name="house-person-leave" unicode="&#xe00f;" horiz-adv-x="640" 
d="M363 58l-26 -26h-233c-22 0 -40 18 -40 40v163l-24 -21c-10 -9 -25 -8 -34 2s-8 25 2 34l216 192c9 8 23 8 32 0l131 -116l-6 -2c-14 -6 -27 -14 -37 -24l-104 92l-128 -114v-198h260l-7 -19zM176 256h64c9 0 16 -7 16 -16v-64c0 -9 -7 -16 -16 -16h-64
c-9 0 -16 7 -16 16v64c0 9 7 16 16 16zM528 352c-26 0 -48 22 -48 48s22 48 48 48s48 -22 48 -48s-22 -48 -48 -48zM633 177c22 -23 -12 -55 -34 -35l-29 29c-7 7 -11 14 -14 23c-15 42 -15 45 -22 55l-26 -105l54 -49c13 -12 22 -28 26 -45l19 -85c3 -13 -5 -26 -18 -29
c-9 -1 -24 2 -29 18l-19 85c-2 8 -6 15 -12 21l-79 73c-14 15 -19 35 -15 54l20 79c-11 -3 -23 -8 -44 -17c-10 -4 -18 -11 -23 -21l-14 -30c-14 -29 -57 -8 -43 20l14 31c10 21 27 37 48 45c43 17 61 26 96 26c45 0 85 -29 100 -72l12 -39c1 -1 2 -2 2 -3zM422 117l36 -36
l-19 -50c-5 -11 -11 -21 -20 -29l-58 -59c-9 -9 -25 -9 -34 0s-9 25 0 34l58 59c4 3 7 8 9 13z" />
    <glyph glyph-name="house-night" unicode="&#xe010;" horiz-adv-x="640" 
d="M112 224c-62 0 -112 50 -112 112s50 112 112 112c7 0 14 -1 21 -2c2 0 3 -2 4 -4c0 -2 -1 -4 -3 -6c-37 -21 -54 -66 -39 -106c15 -41 57 -64 99 -56c2 0 4 -1 5 -3c2 -1 1 -4 0 -5c-21 -27 -53 -42 -87 -42zM117 85l40 -16c2 -1 3 -3 3 -5s-1 -4 -3 -5l-40 -16l-16 -40
c-1 -2 -3 -3 -5 -3s-4 1 -5 3l-16 40l-40 16c-2 1 -3 3 -3 5s1 4 3 5l40 16l16 40c1 2 3 3 5 3s4 -1 5 -3zM195 379c-2 1 -3 3 -3 5s1 4 3 5l40 16l16 40c1 2 3 3 5 3s4 -1 5 -3l16 -40l40 -16c2 -1 3 -3 3 -5s-1 -4 -3 -5l-40 -16l-16 -40c-1 -2 -3 -3 -5 -3s-4 1 -5 3
l-16 40zM632 154c10 -9 11 -24 2 -34c-5 -5 -11 -8 -18 -8c-6 0 -11 2 -16 6l-24 21v-155c0 -26 -22 -48 -48 -48h-256c-26 0 -48 22 -48 48v155l-24 -21c-10 -9 -25 -8 -34 2s-8 25 2 34l216 192c9 8 23 8 32 0l112 -100v50c0 13 11 24 24 24s24 -11 24 -24v-92zM528 -16
v198l-128 114l-128 -114v-198h256zM352 144c0 9 7 16 16 16h64c9 0 16 -7 16 -16v-64c0 -9 -7 -16 -16 -16h-64c-9 0 -16 7 -16 16v64z" />
    <glyph glyph-name="house-person-return" unicode="&#xe011;" horiz-adv-x="640" 
d="M112 278v-198h238c-4 -7 -7 -15 -9 -23l-5 -25h-232c-22 0 -40 18 -40 40v163l-24 -21c-10 -9 -25 -8 -34 2s-8 25 2 34l216 192c9 8 23 8 32 0l133 -118c-13 -10 -24 -22 -33 -35l-116 103zM176 256h64c9 0 16 -7 16 -16v-64c0 -9 -7 -16 -16 -16h-64c-9 0 -16 7 -16 16
v64c0 9 7 16 16 16zM432 352c-26 0 -48 22 -48 48s22 48 48 48s48 -22 48 -48s-22 -48 -48 -48zM525 187c4 -19 -1 -39 -15 -54l-79 -73c-6 -6 -10 -13 -12 -21l-19 -85c-5 -16 -20 -19 -29 -18c-13 3 -21 16 -18 29l19 85c4 17 13 33 26 45l54 49l-26 105
c-7 -10 -7 -13 -22 -55c-3 -9 -7 -16 -14 -23l-29 -29c-22 -20 -56 12 -34 35l30 29c1 1 1 2 2 3l12 39c15 43 55 72 100 72c35 0 53 -9 96 -26c21 -8 38 -24 48 -45l14 -31c14 -28 -29 -49 -43 -20l-14 30c-5 10 -13 17 -23 21c-21 9 -33 14 -44 17zM633 -23
c9 -9 9 -25 0 -34s-25 -9 -34 0l-58 59c-9 8 -15 18 -20 29l-19 50l36 36l28 -68c2 -5 5 -9 9 -13z" />
    <glyph glyph-name="house-signal" unicode="&#xe012;" horiz-adv-x="640" 
d="M24 224c146 0 264 -118 264 -264c0 -13 -11 -24 -24 -24s-24 11 -24 24c0 119 -97 216 -216 216c-13 0 -24 11 -24 24s11 24 24 24zM24 128c93 0 168 -75 168 -168c0 -13 -11 -24 -24 -24s-24 11 -24 24c0 66 -54 120 -120 120c-13 0 -24 11 -24 24s11 24 24 24zM24 32
c40 0 72 -32 72 -72c0 -13 -11 -24 -24 -24s-24 11 -24 24s-11 24 -24 24s-24 11 -24 24s11 24 24 24zM432 160h-64c-9 0 -16 7 -16 16v64c0 9 7 16 16 16h64c9 0 16 -7 16 -16v-64c0 -9 -7 -16 -16 -16zM632 250c10 -9 11 -24 2 -34c-5 -5 -11 -8 -18 -8c-6 0 -11 2 -16 6
l-24 21v-155c0 -26 -22 -48 -48 -48h-184c-13 0 -24 11 -24 24v0c0 13 11 24 24 24h184v198l-128 114l-128 -114v-78c0 -13 -11 -24 -24 -24s-24 11 -24 24v35l-24 -21c-10 -9 -25 -8 -34 2s-8 25 2 34l216 192c9 8 23 8 32 0l112 -100v50c0 13 11 24 24 24s24 -11 24 -24
v-92z" />
    <glyph glyph-name="lamp-desk" unicode="&#xe014;" 
d="M393 169l77 78c15 -22 13 -52 -6 -71s-49 -22 -71 -7zM509 362c6 -13 3 -28 -7 -38l-186 -186c-10 -10 -25 -13 -38 -7c-13 5 -22 18 -22 32v85l-23 23l-86 -86l57 -201h156c13 0 24 -11 24 -24s-11 -24 -24 -24h-336c-13 0 -24 11 -24 24s11 24 24 24h131l-58 201
c-2 9 0 18 6 24l100 99c-22 42 -10 94 29 122c38 28 91 23 124 -11l36 -35h85c14 0 27 -9 32 -22zM304 194l142 142h-74l-50 50c-19 18 -49 18 -67 -1c-19 -19 -19 -48 -1 -67l50 -50v-74z" />
    <glyph glyph-name="lamp-floor" unicode="&#xe015;" horiz-adv-x="384" 
d="M382 235c8 -21 -8 -43 -30 -43h-136v-208h80c13 0 24 -11 24 -24s-11 -24 -24 -24h-208c-13 0 -24 11 -24 24s11 24 24 24h80v208h-136c-22 0 -38 22 -30 43l71 192c5 13 16 21 30 21h178c13 0 25 -8 30 -21zM55 240h274l-59 160h-156z" />
    <glyph glyph-name="light-ceiling" unicode="&#xe016;" 
d="M320 0c0 -35 -29 -64 -64 -64s-64 29 -64 64h128zM0 68c17 117 113 208 232 219v137c0 13 11 24 24 24v0c13 0 24 -11 24 -24v-137c119 -11 215 -102 232 -219c2 -19 -13 -36 -32 -36h-448c-19 0 -35 17 -32 36zM51 80h410c-22 92 -107 160 -205 160s-183 -68 -205 -160z
" />
    <glyph glyph-name="light-switch" unicode="&#xe017;" horiz-adv-x="384" 
d="M320 448c35 0 64 -29 64 -64v-384c0 -35 -29 -64 -64 -64h-256c-35 0 -64 29 -64 64v384c0 35 29 64 64 64h256zM336 0v384c0 9 -7 16 -16 16h-106c-3 -10 -12 -16 -22 -16s-19 6 -22 16h-106c-9 0 -16 -7 -16 -16v-384c0 -9 7 -16 16 -16h106c3 10 12 16 22 16
s19 -6 22 -16h106c9 0 16 7 16 16zM240 352c26 0 48 -22 48 -48v-224c0 -26 -22 -48 -48 -48h-96c-26 0 -48 22 -48 48v224c0 26 22 48 48 48h96zM240 80v88h-96v-88h96zM240 216v88h-96v-88h96z" />
    <glyph glyph-name="light-switch-off" unicode="&#xe018;" horiz-adv-x="384" 
d="M320 448c35 0 64 -29 64 -64v-384c0 -35 -29 -64 -64 -64h-256c-35 0 -64 29 -64 64v384c0 35 29 64 64 64h256zM336 0v384c0 9 -7 16 -16 16h-106c-3 -10 -12 -16 -22 -16s-19 6 -22 16h-106c-9 0 -16 -7 -16 -16v-384c0 -9 7 -16 16 -16h106c3 10 12 16 22 16
s19 -6 22 -16h106c9 0 16 7 16 16zM240 352c26 0 48 -22 48 -48v-224c0 -26 -22 -48 -48 -48h-96c-26 0 -48 22 -48 48v224c0 26 22 48 48 48h96zM240 192v112h-96v-112h96z" />
    <glyph glyph-name="light-switch-on" unicode="&#xe019;" horiz-adv-x="384" 
d="M320 448c35 0 64 -29 64 -64v-384c0 -35 -29 -64 -64 -64h-256c-35 0 -64 29 -64 64v384c0 35 29 64 64 64h256zM336 0v384c0 9 -7 16 -16 16h-106c-3 -10 -12 -16 -22 -16s-19 6 -22 16h-106c-9 0 -16 -7 -16 -16v-384c0 -9 7 -16 16 -16h106c3 10 12 16 22 16
s19 -6 22 -16h106c9 0 16 7 16 16zM240 352c26 0 48 -22 48 -48v-224c0 -26 -22 -48 -48 -48h-96c-26 0 -48 22 -48 48v224c0 26 22 48 48 48h96zM240 80v96h-96v-96h96z" />
    <glyph glyph-name="microwave" unicode="&#xe01b;" horiz-adv-x="576" 
d="M384 320c18 0 32 -14 32 -32v-160c0 -18 -14 -32 -32 -32h-256c-18 0 -32 14 -32 32v160c0 18 14 32 32 32h256zM472 224c13 0 24 -11 24 -24s-11 -24 -24 -24s-24 11 -24 24s11 24 24 24zM512 416c35 0 64 -29 64 -64v-288c0 -35 -29 -64 -64 -64v-8
c0 -13 -11 -24 -24 -24s-24 11 -24 24v8h-352v-8c0 -13 -11 -24 -24 -24s-24 11 -24 24v8c-35 0 -64 29 -64 64v288c0 35 29 64 64 64h448zM528 64v288c0 9 -7 16 -16 16h-448c-9 0 -16 -7 -16 -16v-288c0 -9 7 -16 16 -16h448c9 0 16 7 16 16zM472 304c13 0 24 -11 24 -24
s-11 -24 -24 -24s-24 11 -24 24s11 24 24 24z" />
    <glyph glyph-name="outlet" unicode="&#xe01c;" horiz-adv-x="448" 
d="M384 416c35 0 64 -29 64 -64v-320c0 -35 -29 -64 -64 -64h-320c-35 0 -64 29 -64 64v320c0 35 29 64 64 64h320zM400 32v320c0 9 -7 16 -16 16h-320c-9 0 -16 -7 -16 -16v-320c0 -9 7 -16 16 -16h320c9 0 16 7 16 16zM309 304c5 0 9 -2 13 -5c28 -27 46 -65 46 -107
s-18 -80 -46 -107c-4 -3 -8 -5 -13 -5h-170c-5 0 -9 2 -13 5c-28 27 -46 65 -46 107s18 80 46 107c4 3 8 5 13 5h170zM176 192v48c0 9 -7 16 -16 16s-16 -7 -16 -16v-48c0 -9 7 -16 16 -16s16 7 16 16zM248 112v24c0 13 -11 24 -24 24s-24 -11 -24 -24v-24h48zM304 192v48
c0 9 -7 16 -16 16s-16 -7 -16 -16v-48c0 -9 7 -16 16 -16s16 7 16 16z" />
    <glyph glyph-name="oven" unicode="&#xe01d;" horiz-adv-x="448" 
d="M112 16c-18 0 -32 14 -32 32v128c0 18 14 32 32 32h224c18 0 32 -14 32 -32v-128c0 -18 -14 -32 -32 -32h-224zM160 168c-9 0 -16 -7 -16 -16s7 -16 16 -16h128c9 0 16 7 16 16s-7 16 -16 16h-128zM104 368c13 0 24 -11 24 -24s-11 -24 -24 -24s-24 11 -24 24
s11 24 24 24zM352 448c53 0 96 -43 96 -96v-352c0 -35 -29 -64 -64 -64h-320c-35 0 -64 29 -64 64v352c0 53 43 96 96 96h256zM400 0v240h-352v-240c0 -9 7 -16 16 -16h320c9 0 16 7 16 16zM400 288v64c0 26 -22 48 -48 48h-256c-26 0 -48 -22 -48 -48v-64h352zM344 368
c13 0 24 -11 24 -24s-11 -24 -24 -24s-24 11 -24 24s11 24 24 24zM184 368c13 0 24 -11 24 -24s-11 -24 -24 -24s-24 11 -24 24s11 24 24 24zM264 368c13 0 24 -11 24 -24s-11 -24 -24 -24s-24 11 -24 24s11 24 24 24z" />
    <glyph glyph-name="planet-moon" unicode="&#xe01f;" horiz-adv-x="576" 
d="M512 448c35 0 64 -29 64 -64s-29 -64 -64 -64s-64 29 -64 64s29 64 64 64zM224 384c124 0 224 -100 224 -224s-100 -224 -224 -224s-224 100 -224 224s100 224 224 224zM224 -16c97 0 176 79 176 176c0 86 -63 158 -145 173c-1 -10 -4 -20 -10 -29l-50 -58
c-10 -12 -10 -31 2 -43c7 -7 17 -11 26 -11h65c18 0 32 -14 32 -32v-17c0 -10 -2 -20 -7 -29l-40 -80c-4 -8 -12 -14 -21 -16c-3 0 -7 -1 -10 -1c-5 -1 -9 1 -13 4c-3 3 -5 7 -5 12v63c-18 0 -32 14 -32 32v32l-55 55c-6 6 -14 9 -22 9h-25c-10 0 -19 5 -24 13
c-12 -24 -18 -50 -18 -77c0 -97 79 -176 176 -176z" />
    <glyph glyph-name="planet-ringed" unicode="&#xe020;" 
d="M503 439c23 -24 0 -88 -55 -167c11 -26 16 -53 16 -80c0 -115 -93 -208 -208 -208c-27 0 -54 5 -80 16c-79 -55 -144 -78 -167 -55s0 88 55 167c-11 25 -16 53 -16 80c0 115 93 208 208 208c27 0 55 -5 80 -16c79 55 144 78 167 55zM64 0c8 -8 33 2 67 26
c-15 11 -29 26 -41 41c-24 -34 -34 -59 -26 -67zM173 56c34 28 74 63 115 104s76 81 104 115c-28 46 -78 77 -136 77c-88 0 -160 -72 -160 -160c0 -58 31 -108 77 -136zM256 32c88 0 160 72 160 160c0 11 -1 22 -3 32c-28 -34 -59 -67 -90 -99s-64 -62 -99 -90
c10 -2 21 -3 32 -3zM381 358c15 -12 30 -26 41 -41c24 34 34 59 26 67s-33 -2 -67 -26z" />
    <glyph glyph-name="police-box" unicode="&#xe021;" horiz-adv-x="448" 
d="M216 248c0 -9 -7 -16 -16 -16h-20v36h36v-20zM172 312v-36h-36v20c0 9 7 16 16 16h20zM152 232c-9 0 -16 7 -16 16v20h36v-36h-20zM216 296v-20h-36v36h20c9 0 16 -7 16 -16zM152 128c-9 0 -16 7 -16 16v48c0 9 7 16 16 16h48c9 0 16 -7 16 -16v-48c0 -9 -7 -16 -16 -16
h-48zM312 248c0 -9 -7 -16 -16 -16h-20v36h36v-20zM312 296v-20h-36v36h20c9 0 16 -7 16 -16zM248 232c-9 0 -16 7 -16 16v20h36v-36h-20zM268 312v-36h-36v20c0 9 7 16 16 16h20zM392 -16c13 0 24 -11 24 -24v0c0 -13 -11 -24 -24 -24h-336c-13 0 -24 11 -24 24v0
c0 13 11 24 24 24h8v376c0 13 11 24 24 24h8v16c0 9 7 16 16 16h88v8c0 13 11 24 24 24v0c13 0 24 -11 24 -24v-8h88c9 0 16 -7 16 -16v-16h8c13 0 24 -11 24 -24v-376h8zM336 -16v352h-224v-352h224z" />
    <glyph glyph-name="person-to-portal" unicode="&#xe022;" 
d="M416 448c79 0 96 -139 96 -256c0 -212 -52 -256 -96 -256c-65 0 -88 94 -94 192h48c7 -83 25 -144 46 -144c26 0 48 93 48 208s-22 208 -48 208c-25 0 -46 -85 -48 -193h24c13 0 24 -10 24 -23s-11 -24 -24 -24v0h-48c-25 0 -47 16 -54 39l-14 46c-1 5 -3 9 -6 12
l-42 -104l52 -32c21 -13 32 -39 25 -63l-34 -105c-3 -10 -12 -17 -23 -17c-2 0 -4 0 -6 1c-7 2 -12 6 -15 11c-3 6 -4 13 -2 19l33 104c0 1 1 2 1 2c-1 3 -2 6 -4 7l-84 51c-24 14 -33 43 -23 69l35 87l-14 3c-12 3 -24 0 -34 -7l-48 -37c-11 -8 -26 -6 -34 4s-6 25 4 33
l49 38c20 16 47 22 73 16l78 -18c31 -7 56 -29 65 -60v0c10 154 55 189 94 189zM272 352c-26 0 -48 22 -48 48s21 48 48 48s48 -22 48 -48s-21 -48 -48 -48zM126 131c7 -11 17 -21 28 -28l10 -6l-14 -31c-8 -21 -29 -34 -51 -34h-75c-13 0 -24 11 -24 24s11 24 24 24h75
c3 0 6 2 7 5z" />
    <glyph glyph-name="person-from-portal" unicode="&#xe023;" 
d="M368 352c-26 0 -48 22 -48 48s21 48 48 48s48 -22 48 -48s-21 -48 -48 -48zM488 208c13 0 24 -11 24 -24s-11 -24 -24 -24v0h-48c-25 0 -47 16 -54 40l-14 45c-1 5 -3 9 -6 12l-42 -104l52 -32c21 -13 32 -39 25 -63l-34 -105c-3 -10 -12 -17 -23 -17c-2 0 -4 0 -7 1
c-6 2 -11 6 -14 11c-3 6 -4 13 -2 19l33 104c0 1 1 2 1 2c-1 3 -2 5 -4 7l-84 51c-24 14 -33 43 -23 69l35 87l-15 3c-11 3 -23 0 -33 -7l-41 -32c1 -20 2 -40 2 -59c0 -45 -2 -81 -6 -112h9c3 0 6 2 7 5l20 46c7 -11 17 -21 28 -28l10 -6l-14 -31c-8 -21 -29 -34 -51 -34
h-75c-13 0 -24 11 -24 24s11 24 24 24h16c5 32 8 70 8 112c0 115 -22 208 -48 208s-48 -93 -48 -208s22 -208 48 -208c6 0 13 6 18 16h53c-19 -50 -46 -64 -71 -64c-79 0 -96 139 -96 256c0 212 52 256 96 256c53 0 78 -63 89 -140l17 13c20 16 47 22 73 16l78 -18
c31 -7 56 -29 65 -60l14 -45c1 -4 4 -6 8 -6h48z" />
    <glyph glyph-name="radar" unicode="&#xe024;" 
d="M504 192c0 -141 -117 -254 -260 -248c-126 6 -230 110 -236 236c-6 143 107 260 248 260c50 0 98 -15 139 -43l25 25c9 9 24 9 34 0v0c9 -10 9 -25 0 -34l-196 -196v0h62c0 -35 -28 -64 -63 -64c-35 -1 -64 27 -65 62s27 65 62 66l34 34c-10 4 -21 6 -32 6
c-58 0 -105 -47 -104 -105c1 -56 47 -102 103 -103c58 -1 105 46 105 104h48c0 -74 -53 -135 -123 -149c-7 8 -18 13 -29 13s-22 -5 -29 -13c-61 12 -108 59 -120 120c8 7 13 18 13 29s-5 22 -13 29c14 70 75 123 149 123c25 0 48 -7 69 -17l35 35c-31 20 -67 30 -104 30
c-99 0 -181 -72 -197 -167c-11 -7 -19 -19 -19 -33s8 -26 19 -33c14 -84 80 -150 164 -164c7 -11 19 -19 33 -19s26 8 33 19c95 16 167 98 167 197h48z" />
    <glyph glyph-name="raygun" unicode="&#xe025;" horiz-adv-x="576" 
d="M112 296c13 0 24 -11 24 -24s-11 -24 -24 -24s-24 11 -24 24s11 24 24 24zM208 296c13 0 24 -11 24 -24s-11 -24 -24 -24s-24 11 -24 24s11 24 24 24zM312 416c13 0 24 -11 24 -24v-240c0 -13 -11 -24 -24 -24v0c-13 0 -24 11 -24 24v20c-2 -1 -5 -3 -7 -4l-120 -208
c-6 -11 -17 -19 -29 -22c-13 -4 -26 -2 -37 4l-55 32c-11 7 -19 17 -22 30c-4 12 -2 25 4 36l71 122c-53 9 -93 55 -93 110c0 45 26 83 64 101v59c0 6 3 11 8 14c4 3 10 3 15 0l105 -62h48c17 0 33 -4 48 -11v19c0 13 11 24 24 24v0zM119 -16l102 176h-74l-13 -22l-70 -122z
M288 230v84c-12 14 -30 22 -48 22h-128c-35 0 -64 -29 -64 -64s29 -64 64 -64h128c18 0 36 8 48 22zM555 329c5 2 10 1 14 -2c5 -3 7 -8 7 -13v-84c0 -5 -2 -10 -7 -13c-4 -3 -9 -4 -14 -2l-75 25h-64v-56c0 -13 -11 -24 -24 -24v0c-13 0 -24 11 -24 24v176
c0 13 11 24 24 24v0c13 0 24 -11 24 -24v-56h64z" />
    <glyph glyph-name="refrigerator" unicode="&#xe026;" horiz-adv-x="384" 
d="M288 448c53 0 96 -43 96 -96v-352c0 -35 -29 -64 -64 -64h-256c-35 0 -64 29 -64 64v352c0 53 43 96 96 96h192zM336 0v240h-48v-136c0 -13 -11 -24 -24 -24s-24 11 -24 24v136h-192v-240c0 -9 7 -16 16 -16h256c9 0 16 7 16 16zM336 288v64c0 26 -22 48 -48 48h-192
c-26 0 -48 -22 -48 -48v-64h192v40c0 13 11 24 24 24s24 -11 24 -24v-40h48z" />
    <glyph glyph-name="rocket-launch" unicode="&#xe027;" 
d="M36 96c40 40 94 43 130 6c37 -36 34 -90 -6 -130c-26 -26 -90 -39 -159 -35c-4 68 9 133 35 159zM117 12c14 13 15 31 2 43c-12 13 -30 12 -43 -2c-9 -8 -13 -30 -12 -53c23 -1 45 3 53 12zM505 429c7 -32 7 -58 7 -83c0 -102 -55 -164 -128 -211v-104
c0 -17 -12 -36 -26 -43l-99 -50c-4 -1 -7 -2 -11 -2c-13 0 -24 11 -24 24v104c0 53 -43 96 -96 96h-104c-13 0 -24 11 -24 24c0 4 1 7 3 11l49 99c7 14 27 26 43 26h104c46 73 108 128 211 128c25 0 51 0 83 -7c5 -1 11 -7 12 -12zM358 176c74 47 106 98 106 170
c0 17 0 34 -2 52c-18 2 -34 2 -52 2c-72 0 -123 -32 -170 -106c-17 -25 -7 -8 -53 -99c32 -15 57 -40 72 -72c92 46 74 36 99 53zM368 344c22 0 40 -18 40 -40s-18 -40 -40 -40s-40 18 -40 40s18 40 40 40z" />
    <glyph glyph-name="sensor" unicode="&#xe028;" horiz-adv-x="448" 
d="M200 320c13 0 24 -11 24 -24v-112c0 -13 -11 -24 -24 -24s-24 11 -24 24v112c0 13 11 24 24 24zM120 320c13 0 24 -11 24 -24v-112c0 -13 -11 -24 -24 -24s-24 11 -24 24v112c0 13 11 24 24 24zM384 416c35 0 64 -29 64 -64v-320c0 -35 -29 -64 -64 -64h-320
c-35 0 -64 29 -64 64v320c0 35 29 64 64 64h320zM400 32v320c0 9 -7 16 -16 16h-320c-9 0 -16 -7 -16 -16v-320c0 -9 7 -16 16 -16h320c9 0 16 7 16 16z" />
    <glyph glyph-name="sensor-triangle-exclamation" unicode="&#xe029;" horiz-adv-x="640" 
d="M224 16c1 -14 5 -27 11 -38c2 -4 5 -7 7 -10h-178c-35 0 -64 29 -64 64v320c0 35 29 64 64 64h320c35 0 64 -29 64 -64v-6c-18 0 -34 -6 -48 -16v22c0 9 -7 16 -16 16h-320c-9 0 -16 -7 -16 -16v-320c0 -9 7 -16 16 -16h160zM176 296c0 13 11 24 24 24s24 -11 24 -24
v-112c0 -13 -11 -24 -24 -24s-24 11 -24 24v112zM96 296c0 13 11 24 24 24s24 -11 24 -24v-112c0 -13 -11 -24 -24 -24s-24 11 -24 24v112zM633 45c20 -34 -5 -77 -44 -77h-282c-39 0 -64 43 -44 77l141 244c19 34 69 34 88 0zM448 16c13 0 24 11 24 24s-11 24 -24 24
s-24 -11 -24 -24s11 -24 24 -24zM472 112v80c0 13 -11 24 -24 24s-24 -11 -24 -24v-80c0 -13 11 -24 24 -24s24 11 24 24z" />
    <glyph glyph-name="sensor-fire" unicode="&#xe02a;" horiz-adv-x="640" 
d="M326 16c13 -19 30 -35 49 -48h-311c-35 0 -64 29 -64 64v320c0 35 29 64 64 64h320c25 0 47 -14 57 -36l-23 -23l-18 -18v13c0 9 -7 16 -16 16h-320c-9 0 -16 -7 -16 -16v-320c0 -9 7 -16 16 -16h262zM176 296c0 13 11 24 24 24s24 -11 24 -24v-112
c0 -13 -11 -24 -24 -24s-24 11 -24 24v112zM96 296c0 13 11 24 24 24s24 -11 24 -24v-112c0 -13 -11 -24 -24 -24s-24 11 -24 24v112zM551 297c52 -48 89 -126 89 -164c0 -91 -72 -165 -160 -165s-160 74 -160 165c0 51 50 136 120 201c26 -24 50 -51 71 -80
c12 16 26 30 40 43zM530 47c31 22 38 63 21 96c-2 4 -4 8 -7 13l-37 -42s-57 73 -61 78c-31 -36 -46 -58 -46 -82c0 -48 37 -78 82 -78c17 0 34 5 48 15z" />
    <glyph glyph-name="sensor-on" unicode="&#xe02b;" horiz-adv-x="640" 
d="M616 216c13 0 24 -11 24 -24s-11 -24 -24 -24h-80c-13 0 -24 11 -24 24s11 24 24 24h80zM536 304c-10 0 -20 7 -23 17s1 21 10 27l48 32c7 5 16 6 24 2s13 -12 14 -20c0 -9 -4 -17 -12 -22l-48 -32c-4 -3 -8 -4 -13 -4zM549 76l48 -32c11 -7 14 -22 7 -33s-22 -14 -33 -7
l-48 32c-11 7 -14 22 -7 33s22 14 33 7zM120 320c13 0 24 -11 24 -24v-112c0 -13 -11 -24 -24 -24s-24 11 -24 24v112c0 13 11 24 24 24zM200 320c13 0 24 -11 24 -24v-112c0 -13 -11 -24 -24 -24s-24 11 -24 24v112c0 13 11 24 24 24zM384 416c35 0 64 -29 64 -64v-320
c0 -35 -29 -64 -64 -64h-320c-35 0 -64 29 -64 64v320c0 35 29 64 64 64h320zM400 32v320c0 9 -7 16 -16 16h-320c-9 0 -16 -7 -16 -16v-320c0 -9 7 -16 16 -16h320c9 0 16 7 16 16z" />
    <glyph glyph-name="sensor-cloud" unicode="&#xe02c;" horiz-adv-x="640" 
d="M573 127c41 -7 70 -44 67 -85c-3 -42 -38 -74 -80 -74h-224c-44 0 -80 36 -80 80s36 80 80 80h2c-9 40 15 82 55 93s82 -9 97 -48c15 19 41 25 62 13c20 -12 29 -37 21 -59zM176 296c0 13 11 24 24 24s24 -11 24 -24v-112c0 -13 -11 -24 -24 -24s-24 11 -24 24v112z
M64 16h165c5 -18 15 -35 29 -48h-194c-35 0 -64 29 -64 64v320c0 35 29 64 64 64h320c35 0 64 -29 64 -64v-101c-10 3 -21 5 -32 5c-5 0 -11 -1 -16 -2v98c0 9 -7 16 -16 16h-320c-9 0 -16 -7 -16 -16v-320c0 -9 7 -16 16 -16zM96 296c0 13 11 24 24 24s24 -11 24 -24v-112
c0 -13 -11 -24 -24 -24s-24 11 -24 24v112z" />
    <glyph glyph-name="siren" unicode="&#xe02d;" horiz-adv-x="448" 
d="M188 272c13 -2 22 -15 20 -28l-16 -96c-2 -12 -12 -20 -24 -20h-4c-13 2 -22 15 -20 28l16 96c2 13 15 22 28 20zM401 112c26 -1 47 -22 47 -48v-48c0 -26 -22 -48 -48 -48h-352c-26 0 -48 22 -48 48v48c0 26 21 47 47 48l36 194c5 27 29 46 56 46h170
c27 0 51 -19 55 -46zM131 297l-35 -185h256l-35 186c0 3 -4 6 -8 6h-170c-4 0 -8 -3 -8 -7zM400 16v48h-352v-48h352z" />
    <glyph glyph-name="siren-on" unicode="&#xe02e;" horiz-adv-x="640" 
d="M112 224c0 -13 -11 -24 -24 -24h-64c-13 0 -24 11 -24 24s11 24 24 24h64c13 0 24 -11 24 -24zM91 340l-48 32c-8 5 -13 14 -12 22s6 16 14 20s17 3 24 -2l48 -32c8 -5 13 -14 12 -22s-6 -16 -14 -20s-17 -3 -24 2zM536 336c-10 0 -20 7 -23 17s1 21 10 27l48 32
c7 5 16 6 24 2s12 -11 13 -20s-3 -17 -11 -22l-48 -32c-4 -3 -8 -4 -13 -4zM616 248c13 0 24 -11 24 -24s-11 -24 -24 -24h-64c-13 0 -24 11 -24 24s11 24 24 24h64zM497 112c26 -1 47 -22 47 -48v-48c0 -26 -22 -48 -48 -48h-352c-26 0 -48 22 -48 48v48c0 26 21 47 47 48
l36 194c5 27 29 46 56 46h170c27 0 51 -19 55 -46zM227 297l-35 -185h256l-35 186c0 3 -4 6 -8 6h-170c-4 0 -8 -3 -8 -7zM496 16v48h-352v-48h352zM284 272c13 -2 22 -15 20 -28l-16 -96c-2 -12 -12 -20 -24 -20h-4c-13 2 -22 15 -20 28l16 96c2 13 15 22 28 20z" />
    <glyph glyph-name="solar-system" unicode="&#xe02f;" 
d="M256 256c35 0 64 -29 64 -64s-29 -64 -64 -64s-64 29 -64 64s29 64 64 64zM256 176c9 0 16 7 16 16s-7 16 -16 16s-16 -7 -16 -16s7 -16 16 -16zM470 52c12 -23 5 -52 -15 -68s-50 -16 -70 0s-27 45 -16 68c12 24 38 36 64 30c49 81 40 187 -30 257
c-60 60 -150 77 -228 45c-4 13 -11 24 -21 34l-6 6c97 46 213 25 289 -51c87 -87 98 -222 33 -321zM358 -34l6 -6c-97 -46 -213 -25 -289 51c-87 87 -98 222 -33 321c-12 23 -5 52 15 68c21 16 50 16 70 0c21 -17 27 -45 16 -68c-12 -24 -38 -36 -64 -30
c-49 -81 -40 -187 30 -257c60 -60 150 -77 228 -45c4 -13 11 -24 21 -34zM392 328c16 -17 17 -42 4 -61c33 -61 24 -137 -27 -188s-130 -62 -193 -26c-63 37 -93 110 -75 180c19 70 83 119 155 119c26 0 51 -7 75 -20c19 13 44 12 61 -4zM335 113c36 36 42 91 18 134
c-11 1 -21 5 -29 13s-12 18 -13 29c-51 29 -115 14 -149 -34c-33 -48 -24 -113 21 -150s111 -34 152 8z" />
    <glyph glyph-name="circle-sort" unicode="&#xe030;" 
d="M256 432c133 0 240 -107 240 -240s-107 -240 -240 -240s-240 107 -240 240s107 240 240 240zM256 0c106 0 192 86 192 192s-86 192 -192 192s-192 -86 -192 -192s86 -192 192 -192zM269 331l92 -92c11 -11 3 -31 -13 -31h-183c-17 0 -25 20 -14 31l92 92c3 3 8 5 13 5
s10 -2 13 -5zM347 176c17 0 25 -20 14 -31l-92 -92c-3 -3 -8 -5 -13 -5s-10 2 -13 5l-92 92c-11 11 -3 31 14 31h182z" />
    <glyph glyph-name="circle-sort-down" unicode="&#xe031;" 
d="M347 176c17 0 25 -20 14 -31l-92 -92c-3 -3 -8 -5 -13 -5s-10 2 -13 5l-92 92c-11 11 -3 31 14 31h182zM256 432c133 0 240 -107 240 -240s-107 -240 -240 -240s-240 107 -240 240s107 240 240 240zM256 0c106 0 192 86 192 192s-86 192 -192 192s-192 -86 -192 -192
s86 -192 192 -192zM269 331l92 -92c11 -11 3 -31 -13 -31h-183c-17 0 -25 20 -14 31l92 92c3 3 8 5 13 5s10 -2 13 -5zM197 240h118l-59 58z" />
    <glyph glyph-name="circle-sort-up" unicode="&#xe032;" 
d="M361 239c11 -11 3 -31 -13 -31h-183c-17 0 -25 20 -14 31l92 92c3 3 8 5 13 5s10 -2 13 -5zM496 192c0 -133 -107 -240 -240 -240s-240 107 -240 240s107 240 240 240s240 -107 240 -240zM448 192c0 106 -86 192 -192 192s-192 -86 -192 -192s86 -192 192 -192
s192 86 192 192zM361 145l-92 -92c-3 -3 -8 -5 -13 -5s-10 2 -13 5l-92 92c-11 11 -3 31 14 31h183c16 0 24 -20 13 -31zM315 144h-118l59 -58z" />
    <glyph glyph-name="space-station-moon" unicode="&#xe033;" 
d="M256 432c133 0 240 -107 240 -240s-107 -240 -240 -240s-240 107 -240 240s107 240 240 240zM192 320c-18 0 -32 -14 -32 -32s14 -32 32 -32s32 14 32 32s-14 32 -32 32zM126 332c-38 -35 -62 -85 -62 -140c0 -6 0 -13 1 -19c58 -28 122 -45 191 -45s133 17 191 45
c1 6 1 13 1 19c0 106 -86 192 -192 192c-29 0 -55 -6 -80 -18c5 1 11 2 16 2c44 0 80 -36 80 -80s-36 -80 -80 -80s-80 36 -80 80c0 16 5 32 14 44zM256 0c78 0 145 47 175 114c-54 -22 -113 -34 -175 -34s-121 12 -175 34c30 -67 97 -114 175 -114z" />
    <glyph glyph-name="space-station-moon-construction" unicode="&#xe034;" 
d="M472 216c13 0 24 -11 24 -24c0 -12 -1 -25 -3 -39c-2 -7 -6 -14 -13 -17c-69 -37 -146 -56 -224 -56c-59 0 -119 11 -174 33c30 -67 97 -113 174 -113c54 0 106 23 142 63c9 10 24 11 34 2s11 -24 2 -34c-46 -50 -110 -79 -178 -79c-118 0 -218 85 -237 201v0
c-2 14 -3 27 -3 39c0 132 108 240 240 240c76 0 148 -37 193 -98c6 -7 6 -17 2 -25s-12 -13 -21 -13h-54c-13 0 -24 11 -24 24c0 12 9 23 21 24c-33 26 -74 40 -117 40c-29 0 -55 -6 -80 -18c5 1 11 2 16 2c44 0 80 -36 80 -80s-36 -80 -80 -80s-80 36 -80 80
c0 16 5 32 14 44c-38 -35 -62 -85 -62 -140c0 -6 0 -13 1 -19c120 -60 262 -60 382 0c1 6 1 13 1 19c0 13 11 24 24 24zM192 320c-18 0 -32 -14 -32 -32s14 -32 32 -32s32 14 32 32s-14 32 -32 32zM424 264c13 0 24 -11 24 -24s-11 -24 -24 -24h-48c-13 0 -24 11 -24 24
s11 24 24 24h48z" />
    <glyph glyph-name="sprinkler" unicode="&#xe035;" 
d="M24 344c13 0 24 -11 24 -24s-11 -24 -24 -24s-24 11 -24 24s11 24 24 24zM24 240c13 0 24 -11 24 -24s-11 -24 -24 -24s-24 11 -24 24s11 24 24 24zM88 352c-13 0 -24 11 -24 24s11 24 24 24s24 -11 24 -24s-11 -24 -24 -24zM360 296c-13 0 -24 11 -24 24s11 24 24 24
s24 -11 24 -24s-11 -24 -24 -24zM24 448c13 0 24 -11 24 -24s-11 -24 -24 -24s-24 11 -24 24s11 24 24 24zM152 296c-13 0 -24 11 -24 24s11 24 24 24s24 -11 24 -24s-11 -24 -24 -24zM488 400c-13 0 -24 11 -24 24s11 24 24 24s24 -11 24 -24s-11 -24 -24 -24zM488 240
c13 0 24 -11 24 -24s-11 -24 -24 -24s-24 11 -24 24s11 24 24 24zM488 344c13 0 24 -11 24 -24s-11 -24 -24 -24s-24 11 -24 24s11 24 24 24zM424 400c13 0 24 -11 24 -24s-11 -24 -24 -24s-24 11 -24 24s11 24 24 24zM424 288c13 0 24 -11 24 -24s-11 -24 -24 -24
s-24 11 -24 24s11 24 24 24zM112 264c0 -13 -11 -24 -24 -24s-24 11 -24 24s11 24 24 24s24 -11 24 -24zM398 192c7 0 13 -4 16 -10s2 -13 -2 -19l-67 -78l-25 -24v-109c0 -9 -7 -16 -16 -16h-96c-9 0 -16 7 -16 16v109l-25 24l-67 78c-4 6 -5 13 -2 19s9 10 16 10h118v168
c0 13 11 24 24 24s24 -11 24 -24v-168h118zM272 80l60 64h-152l60 -64v-96h32v96z" />
    <glyph glyph-name="star-shooting" unicode="&#xe036;" 
d="M364 188c19 -3 27 -26 13 -40l-76 -74l18 -104c1 -7 -1 -14 -5 -19s-11 -8 -18 -8c-3 0 -7 1 -10 3l-94 49l-94 -49c-3 -2 -7 -3 -11 -3c-6 0 -13 3 -17 8s-6 12 -5 19l18 104l-76 74c-14 14 -6 37 13 40l104 15l47 95c4 8 12 13 21 13s17 -5 21 -13l46 -95zM250 91
l57 56l-79 12l-36 72l-36 -72l-79 -12l58 -56l-14 -79l71 37l71 -37zM311 254c-9 9 -9 25 0 34l160 160c9 9 25 9 34 0s9 -25 0 -34l-160 -160c-5 -5 -11 -7 -17 -7s-12 2 -17 7zM248 359c-6 0 -12 2 -17 7c-9 9 -9 25 0 34l48 48c9 9 25 9 34 0s9 -25 0 -34l-48 -48
c-5 -5 -11 -7 -17 -7zM471 256c9 9 25 9 34 0s9 -25 0 -34l-48 -48c-5 -5 -11 -7 -17 -7s-12 2 -17 7c-9 9 -9 25 0 34z" />
    <glyph glyph-name="starfighter" unicode="&#xe037;" horiz-adv-x="640" 
d="M288 192c0 18 14 32 32 32s32 -14 32 -32v-48c0 -9 -7 -16 -16 -16h-32c-9 0 -16 7 -16 16v48zM624 320c9 0 16 -7 16 -16v0c0 -9 -7 -16 -16 -16v0v-264c0 -11 -8 -21 -19 -23c-11 -3 -22 3 -27 13l-106 -43v-11c0 -13 -11 -24 -24 -24v0c-13 0 -24 11 -24 24v9
c-9 1 -17 4 -24 8c-7 -5 -15 -9 -24 -9h-112c-9 0 -17 4 -24 9c-7 -4 -15 -7 -24 -8v-9c0 -13 -11 -24 -24 -24v0c-13 0 -24 11 -24 24v11l-106 43c-5 -10 -16 -16 -27 -13c-11 2 -19 12 -19 23v264v0c-9 0 -16 7 -16 16v0c0 9 7 16 16 16v0v8c0 15 13 26 29 24
c11 -3 19 -13 19 -25v-7v0c9 0 16 -7 16 -16v0c0 -9 -7 -16 -16 -16v0v-192h48v48c0 35 29 64 64 64h32c7 0 14 -1 20 -4l26 209c3 20 20 35 40 35h52c20 0 37 -15 39 -35l27 -209c6 3 13 4 20 4h32c35 0 64 -29 64 -64v-48h48v192v0c-9 0 -16 7 -16 16v0c0 9 7 16 16 16v0
v8c0 15 13 26 29 24c11 -3 19 -13 19 -25v-7zM224 32v112c0 9 -7 16 -16 16h-32c-9 0 -16 -7 -16 -16v-112c0 -9 7 -16 16 -16h32c9 0 16 7 16 16zM368 32v136l-29 232h-38l-29 -235v-133c0 -9 7 -16 16 -16h64c9 0 16 7 16 16zM480 32v112c0 9 -7 16 -16 16h-32
c-9 0 -16 -7 -16 -16v-112c0 -9 7 -16 16 -16h32c9 0 16 7 16 16z" />
    <glyph glyph-name="starfighter-twin-ion-engine" unicode="&#xe038;" horiz-adv-x="576" 
d="M552 416c13 0 24 -11 24 -24v-400c0 -13 -11 -24 -24 -24v0c-13 0 -24 11 -24 24v139l-106 -26c-29 -44 -78 -73 -134 -73s-105 29 -134 73l-106 26v-139c0 -13 -11 -24 -24 -24v0c-13 0 -24 11 -24 24v400c0 13 11 24 24 24v0c13 0 24 -11 24 -24v-139l106 26
c29 44 78 73 134 73s105 -29 134 -73l106 -26v139c0 13 11 24 24 24v0zM131 160c-4 21 -4 43 0 64l-75 -19v-26zM304 302v-40c8 -2 15 -5 22 -9l29 28c-15 11 -33 19 -51 21zM272 302c-18 -2 -36 -9 -51 -21l29 -28c7 4 14 7 22 9v40zM199 259c-12 -15 -19 -33 -21 -51h40
c2 8 5 15 9 22zM178 176c2 -18 9 -36 21 -51l28 29c-4 7 -7 14 -9 22h-40zM272 82v40c-8 2 -15 5 -22 9l-29 -28c15 -11 33 -19 51 -21zM264 192c0 -13 11 -24 24 -24s24 11 24 24s-11 24 -24 24s-24 -11 -24 -24zM304 82c18 2 36 9 51 21l-29 28c-7 -4 -14 -7 -22 -9v-40z
M377 125c12 15 19 33 21 51h-40c-2 -8 -5 -15 -9 -22zM358 208h40c-2 18 -9 36 -21 51l-28 -29c4 -7 7 -14 9 -22zM520 179v26l-75 19c4 -21 4 -43 0 -64z" />
    <glyph glyph-name="starship" unicode="&#xe039;" horiz-adv-x="640" 
d="M491 379c72 -15 130 -74 145 -146c26 -124 -68 -233 -188 -233c-78 0 -146 47 -176 115l-71 6l-38 -25h29c39 0 70 -35 63 -75c-5 -31 -34 -53 -66 -53h-141c-26 0 -48 22 -48 48v32c0 26 22 48 48 48h29l48 32c-39 4 -61 33 -61 64s22 60 61 64l-48 32h-29
c-26 0 -48 22 -48 48v32c0 26 22 48 48 48h144c39 0 70 -35 63 -75c-5 -31 -34 -53 -66 -53h-26l38 -25l71 6c35 80 123 131 219 110zM48 336h144c9 0 16 7 16 16s-7 16 -16 16h-144v-32zM192 48h-144v-32h144c9 0 16 7 16 16s-7 16 -16 16zM258 164c-1 10 -2 19 -2 28
s1 18 2 28l-132 -12c-8 -1 -14 -8 -14 -16s6 -15 14 -16zM448 48c79 0 144 65 144 144s-65 144 -144 144s-144 -65 -144 -144s65 -144 144 -144zM448 272c44 0 80 -36 80 -80s-36 -80 -80 -80s-80 36 -80 80s36 80 80 80zM448 160c18 0 32 14 32 32s-14 32 -32 32
s-32 -14 -32 -32s14 -32 32 -32z" />
    <glyph glyph-name="starship-freighter" unicode="&#xe03a;" horiz-adv-x="576" 
d="M128 112c9 0 16 -7 16 -16s-7 -16 -16 -16s-16 7 -16 16s7 16 16 16zM96 208c9 0 16 -7 16 -16s-7 -16 -16 -16s-16 7 -16 16s7 16 16 16zM128 304c9 0 16 -7 16 -16s-7 -16 -16 -16s-16 7 -16 16s7 16 16 16zM555 312c13 -5 21 -17 21 -30v-180c0 -13 -8 -25 -21 -30
l-58 -21c17 -21 20 -51 8 -75c-13 -25 -38 -40 -65 -40h-72c-24 0 -46 11 -59 31l-9 13c-25 -8 -50 -12 -76 -12c-29 0 -58 5 -85 17c-143 62 -139 207 -139 207s-4 145 139 207c27 12 56 17 85 17c30 0 60 -5 87 -16zM224 16c16 0 31 2 47 6l-61 88c-34 12 -58 44 -58 82
c0 49 39 88 88 88s88 -39 88 -88v0l54 -77c12 24 18 50 18 77c0 149 -143 176 -176 176c-97 0 -177 -83 -176 -176c-1 -86 73 -176 176 -176zM280 192c0 22 -18 40 -40 40s-40 -18 -40 -40s18 -40 40 -40s40 18 40 40zM440 -16c13 0 24 11 24 24s-11 24 -24 24h-59l-73 105
c-10 -13 -24 -23 -40 -28l80 -115c5 -6 12 -10 20 -10h72zM528 114v46h-82c-5 -28 -14 -55 -29 -80h19zM528 224v46l-116 43c18 -27 29 -57 34 -89h82z" />
    <glyph glyph-name="sword-laser" unicode="&#xe03b;" 
d="M177 224l113 -113c3 -3 3 -8 0 -11l-12 -11c-3 -3 -8 -3 -11 0l-6 5l-142 -142c-21 -21 -56 -21 -77 0l-26 26c-21 21 -21 56 0 77l142 142l-4 5c-3 3 -3 8 0 11l11 11c3 4 8 4 12 0zM85 -14l63 63l-35 35l-63 -63c-3 -3 -3 -7 0 -9l26 -26c2 -3 7 -3 9 0zM160 61l11 11
l-35 35l-11 -11zM182 83l12 11l-36 36l-11 -12zM205 106l11 11l-35 35l-11 -11zM503 439c12 -11 12 -29 1 -41l-218 -238l-62 62l238 218c12 11 30 11 41 -1z" />
    <glyph glyph-name="sword-laser-alt" unicode="&#xe03c;" 
d="M119 -48c-21 -21 -56 -21 -77 0l-26 26c-21 21 -21 56 0 77l132 132c3 3 7 5 12 5h159c14 0 21 -17 11 -27zM173 144l-35 -35l35 -35l70 70h-70zM50 12l6 -6l70 70l-11 10l-65 -65c-3 -2 -3 -7 0 -9zM76 -14c2 -3 7 -3 9 0l65 65l-10 11l-70 -70zM503 439
c12 -11 12 -29 1 -41l-160 -174h-117l235 216c12 11 30 11 41 -1z" />
    <glyph glyph-name="swords-laser" unicode="&#xe03d;" horiz-adv-x="640" 
d="M121 439c11 12 29 12 41 1l174 -160v-117l-216 235c-11 12 -11 30 1 41zM608 55c21 -21 21 -56 0 -77l-26 -26c-21 -21 -56 -21 -77 0l-132 132c-3 3 -5 7 -5 12v159c0 7 4 12 10 15c6 2 13 1 17 -4zM416 109l35 -35l35 35l-70 70v-70zM548 -14l6 6l-70 70l-10 -11
l65 -65c1 -1 3 -2 5 -2c1 0 3 1 4 2zM574 12c3 2 3 7 0 9l-65 65l-11 -10l70 -70zM399 301c-5 1 -10 2 -15 2c-7 0 -14 -1 -21 -5l-5 6l-30 27l118 109c12 11 30 11 41 -1c11 -11 12 -29 1 -41zM225 237l57 -63l-34 -37l26 -26c3 -3 3 -8 0 -11l-12 -11c-3 -3 -8 -3 -11 0
l-6 5l-142 -142c-21 -21 -56 -21 -77 0l-26 26c-21 21 -21 56 0 77l142 142l-4 5c-3 3 -3 8 0 11l11 11c3 4 8 4 11 0l25 -24zM69 -14l63 63l-35 35l-63 -63c-3 -3 -3 -7 0 -9l26 -26c2 -3 6 -3 9 0zM143 61l12 11l-35 35l-12 -11zM166 83l12 11l-36 36l-11 -12zM189 106
l11 11l-35 35l-11 -11z" />
    <glyph glyph-name="telescope" unicode="&#xe03e;" horiz-adv-x="640" 
d="M639 231c3 -8 -1 -17 -9 -21l-117 -48c-8 -4 -18 0 -21 8l-3 8l-97 -33v-1c0 -17 -6 -32 -16 -44l47 -132c4 -13 -2 -26 -15 -31c-3 -1 -5 -1 -8 -1c-10 0 -19 6 -23 16l-43 121c-4 0 -9 -1 -14 -1s-10 1 -14 2l-43 -122c-4 -10 -13 -16 -23 -16c-3 0 -5 0 -8 1
c-13 5 -19 18 -15 31l47 132h-1l-127 -44c-9 -2 -18 1 -21 9l-9 21l-64 -26c-1 -1 -4 -2 -6 -2c-6 0 -12 5 -15 10l-20 49c0 1 -1 4 -1 6c0 6 4 12 10 15l64 26l-9 21c-3 8 1 17 9 21l335 164l-3 7c-3 9 1 18 9 21l117 49c8 3 18 -1 21 -9zM320 120c13 0 24 11 24 24
s-11 24 -24 24s-24 -11 -24 -24s11 -24 24 -24zM375 190l95 33l-42 102l-307 -149l27 -65l100 35c1 39 33 70 72 70c22 0 42 -10 55 -26zM524 218l58 24l-61 148l-58 -24z" />
    <glyph glyph-name="temperature-arrow-down" unicode="&#xe03f;" 
d="M192 80c0 -26 -22 -48 -48 -48s-48 22 -48 48c0 21 13 38 32 45v19c0 9 7 16 16 16s16 -7 16 -16v-19c19 -7 32 -24 32 -45zM256 170c20 -25 32 -56 32 -90c0 -79 -65 -144 -144 -144s-144 65 -144 144c0 34 12 65 32 90v166c0 62 50 112 112 112s112 -50 112 -112v-166z
M240 80c0 27 -12 47 -22 60l-10 13v183c0 35 -29 64 -64 64s-64 -29 -64 -64v-183l-10 -13c-10 -13 -22 -33 -22 -60c0 -53 43 -96 96 -96s96 43 96 96zM504 90c10 -9 11 -24 2 -34l-72 -80c-5 -5 -11 -8 -18 -8s-13 3 -18 8l-72 80c-9 10 -8 25 2 34s25 8 34 -2l30 -33v337
c0 13 11 24 24 24s24 -11 24 -24v-337l30 33c9 10 24 11 34 2z" />
    <glyph glyph-name="temperature-arrow-up" unicode="&#xe040;" 
d="M192 80c0 -26 -22 -48 -48 -48s-48 22 -48 48c0 21 13 38 32 45v211c0 9 7 16 16 16s16 -7 16 -16v-211c19 -7 32 -24 32 -45zM256 170c20 -25 32 -56 32 -90c0 -79 -65 -144 -144 -144s-144 65 -144 144c0 34 12 65 32 90v166c0 62 50 112 112 112s112 -50 112 -112
v-166zM240 80c0 27 -12 47 -22 60l-10 13v183c0 35 -29 64 -64 64s-64 -29 -64 -64v-183l-10 -13c-10 -13 -22 -33 -22 -60c0 -53 43 -96 96 -96s96 43 96 96zM504 294c-10 -9 -25 -8 -34 2l-30 33v-337c0 -13 -11 -24 -24 -24s-24 11 -24 24v337l-30 -33
c-9 -10 -24 -11 -34 -2s-11 24 -2 34l72 80c5 5 11 8 18 8s13 -3 18 -8l72 -80c9 -10 8 -25 -2 -34z" />
    <glyph glyph-name="trailer" unicode="&#xe041;" horiz-adv-x="640" 
d="M616 112c13 0 24 -11 24 -24s-11 -24 -24 -24h-328c0 -53 -43 -96 -96 -96s-96 43 -96 96h-32c-35 0 -64 29 -64 64v224c0 35 29 64 64 64h448c35 0 64 -29 64 -64v-240h40zM192 16c26 0 48 22 48 48s-22 48 -48 48s-48 -22 -48 -48s22 -48 48 -48zM528 112v240
c0 9 -7 16 -16 16h-448c-9 0 -16 -7 -16 -16v-224c0 -9 7 -16 16 -16h45c17 29 48 48 83 48s66 -19 83 -48h253zM336 336c13 0 24 -11 24 -24v-144c0 -13 -11 -24 -24 -24s-24 11 -24 24v144c0 13 11 24 24 24zM240 336c13 0 24 -11 24 -24v-96c0 -13 -11 -24 -24 -24
s-24 11 -24 24v96c0 13 11 24 24 24zM144 336c13 0 24 -11 24 -24v-96c0 -13 -11 -24 -24 -24s-24 11 -24 24v96c0 13 11 24 24 24zM432 336c13 0 24 -11 24 -24v-144c0 -13 -11 -24 -24 -24s-24 11 -24 24v144c0 13 11 24 24 24z" />
    <glyph glyph-name="transporter" unicode="&#xe042;" 
d="M256 352c-26 0 -48 22 -48 48s22 48 48 48s48 -22 48 -48s-22 -48 -48 -48zM94 340c1 -1 2 -2 2 -4s-1 -3 -2 -4l-30 -12l-12 -30c-1 -1 -2 -2 -4 -2s-3 1 -4 2l-12 30l-30 12c-1 1 -2 2 -2 4s1 3 2 4l30 12l12 30c1 1 2 2 4 2s3 -1 4 -2l12 -30zM510 404c1 -1 2 -2 2 -4
s-1 -3 -2 -4l-30 -12l-12 -30c-1 -1 -2 -2 -4 -2s-3 1 -4 2l-12 30l-30 12c-1 1 -2 2 -2 4s1 3 2 4l30 12l12 30c1 1 2 2 4 2s3 -1 4 -2l12 -30zM392 -16c13 0 24 -11 24 -24s-11 -24 -24 -24h-272c-13 0 -24 11 -24 24s11 24 24 24h72v253l-53 -68c-8 -10 -23 -12 -34 -4
c-10 8 -12 23 -4 34l78 100c11 13 27 21 44 21h66c17 0 33 -8 44 -21l78 -100c8 -11 6 -26 -4 -34c-11 -8 -26 -6 -34 4l-53 68v-253h72zM264 -16v144h-16v-144h16z" />
    <glyph glyph-name="transporter-1" unicode="&#xe043;" 
d="M120 160c-9 0 -18 6 -22 14s-3 18 3 25l78 100c11 13 27 21 44 21h65c18 0 34 -8 45 -21l78 -100c8 -11 6 -26 -4 -34c-11 -8 -26 -6 -34 4l-53 68v-109h16c9 0 16 -7 16 -16s-7 -16 -16 -16h-160c-9 0 -16 7 -16 16s7 16 16 16h16v109l-53 -68c-5 -6 -12 -9 -19 -9z
M336 64c9 0 16 -7 16 -16s-7 -16 -16 -16h-160c-9 0 -16 7 -16 16s7 16 16 16h160zM256 352c-26 0 -48 22 -48 48s22 48 48 48s48 -22 48 -48s-22 -48 -48 -48zM94 84c1 -1 2 -2 2 -4s-1 -3 -2 -4l-30 -12l-12 -30c-1 -1 -2 -2 -4 -2s-3 1 -4 2l-12 30l-30 12
c-1 1 -2 2 -2 4s1 3 2 4l30 12l12 30c1 1 2 2 4 2s3 -1 4 -2l12 -30zM510 276c1 -1 2 -2 2 -4s-1 -3 -2 -4l-30 -12l-12 -30c-1 -1 -2 -2 -4 -2s-3 1 -4 2l-12 30l-30 12c-1 1 -2 2 -2 4s1 3 2 4l30 12l12 30c1 1 2 2 4 2s3 -1 4 -2l12 -30zM392 -16c13 0 24 -11 24 -24
s-11 -24 -24 -24h-272c-13 0 -24 11 -24 24s11 24 24 24h40c0 9 7 16 16 16h160c9 0 16 -7 16 -16h40z" />
    <glyph glyph-name="transporter-2" unicode="&#xe044;" 
d="M112 160c-9 0 -16 7 -16 16s7 16 16 16h288c9 0 16 -7 16 -16s-7 -16 -16 -16h-288zM333 299l58 -75h-270l58 75c11 13 27 21 45 21h65c17 0 33 -8 44 -21zM256 352c-26 0 -48 22 -48 48s22 48 48 48s48 -22 48 -48s-22 -48 -48 -48zM336 128c9 0 16 -7 16 -16
s-7 -16 -16 -16h-160c-9 0 -16 7 -16 16s7 16 16 16h160zM392 -16c13 0 24 -11 24 -24s-11 -24 -24 -24h-272c-13 0 -24 11 -24 24s11 24 24 24h40c0 9 7 16 16 16h160c9 0 16 -7 16 -16h40zM510 84c1 -1 2 -2 2 -4s-1 -3 -2 -4l-30 -12l-12 -30c-1 -1 -2 -2 -4 -2
s-3 1 -4 2l-12 30l-30 12c-1 1 -2 2 -2 4s1 3 2 4l30 12l12 30c1 1 2 2 4 2s3 -1 4 -2l12 -30zM94 404c1 -1 2 -2 2 -4s-1 -3 -2 -4l-30 -12l-12 -30c-1 -1 -2 -2 -4 -2s-3 1 -4 2l-12 30l-30 12c-1 1 -2 2 -2 4s1 3 2 4l30 12l12 30c1 1 2 2 4 2s3 -1 4 -2l12 -30zM336 64
c9 0 16 -7 16 -16s-7 -16 -16 -16h-160c-9 0 -16 7 -16 16s7 16 16 16h160z" />
    <glyph glyph-name="transporter-3" unicode="&#xe045;" 
d="M144 224c-9 0 -16 7 -16 16s7 16 16 16h224c9 0 16 -7 16 -16s-7 -16 -16 -16h-224zM176 288c-9 0 -16 7 -16 16s7 16 16 16h160c9 0 16 -7 16 -16s-7 -16 -16 -16h-160zM94 308c1 -1 2 -2 2 -4s-1 -3 -2 -4l-30 -12l-12 -30c-1 -1 -2 -2 -4 -2s-3 1 -4 2l-12 30l-30 12
c-1 1 -2 2 -2 4s1 3 2 4l30 12l12 30c1 1 2 2 4 2s3 -1 4 -2l12 -30zM256 352c-26 0 -48 22 -48 48s22 48 48 48s48 -22 48 -48s-22 -48 -48 -48zM510 404c1 -1 2 -2 2 -4s-1 -3 -2 -4l-30 -12l-12 -30c-1 -1 -2 -2 -4 -2s-3 1 -4 2l-12 30l-30 12c-1 1 -2 2 -2 4s1 3 2 4
l30 12l12 30c1 1 2 2 4 2s3 -1 4 -2l12 -30zM392 -16c13 0 24 -11 24 -24s-11 -24 -24 -24h-272c-13 0 -24 11 -24 24s11 24 24 24h40c0 9 7 16 16 16h160c9 0 16 -7 16 -16h40zM400 192c9 0 16 -7 16 -16s-7 -16 -16 -16h-288c-9 0 -16 7 -16 16s7 16 16 16h288zM176 96
c-9 0 -16 7 -16 16s7 16 16 16h160c9 0 16 -7 16 -16s-7 -16 -16 -16h-160zM176 32c-9 0 -16 7 -16 16s7 16 16 16h160c9 0 16 -7 16 -16s-7 -16 -16 -16h-160z" />
    <glyph glyph-name="transporter-empty" unicode="&#xe046;" horiz-adv-x="320" 
d="M296 -16c13 0 24 -11 24 -24v0c0 -13 -11 -24 -24 -24h-272c-13 0 -24 11 -24 24v0c0 13 11 24 24 24h272z" />
    <glyph glyph-name="ufo" unicode="&#xe047;" horiz-adv-x="640" 
d="M320 112c13 0 24 -11 24 -24s-11 -24 -24 -24s-24 11 -24 24s11 24 24 24zM128 152c13 0 24 -11 24 -24s-11 -24 -24 -24s-24 11 -24 24s11 24 24 24zM500 235c81 -20 140 -56 140 -107c0 -84 -161 -128 -320 -128s-320 44 -320 128c0 51 59 87 140 107
c18 85 92 149 180 149s162 -64 180 -149zM320 336c-73 0 -133 -60 -136 -134c83 -34 189 -34 271 -1c-3 77 -63 135 -135 135zM320 48c166 0 272 47 272 80c0 18 -32 40 -89 57c-1 -8 -7 -18 -14 -21c-51 -24 -109 -36 -169 -36s-118 12 -169 36c-8 3 -13 11 -14 20v1
c-57 -17 -89 -39 -89 -57c0 -33 106 -80 272 -80zM512 152c13 0 24 -11 24 -24s-11 -24 -24 -24s-24 11 -24 24s11 24 24 24z" />
    <glyph glyph-name="ufo-beam" unicode="&#xe048;" horiz-adv-x="576" 
d="M107 117c12 -6 16 -21 10 -32l-72 -136c-4 -8 -12 -13 -21 -13c-4 0 -8 1 -11 3c-12 6 -16 21 -10 32l72 136c6 12 21 16 32 10zM501 107l72 -136c6 -12 2 -26 -10 -32c-3 -2 -7 -3 -11 -3c-9 0 -17 5 -21 13l-72 136c-6 12 -2 26 10 32c11 6 26 2 32 -10zM576 252
c0 -81 -145 -124 -288 -124s-288 43 -288 124c0 54 64 91 148 109c27 52 79 87 140 87s113 -35 140 -87c84 -18 148 -55 148 -109zM288 400c-59 0 -108 -48 -111 -108c68 -26 154 -26 222 0c-4 61 -52 108 -111 108zM288 176c146 0 240 45 240 76c0 18 -30 40 -83 55
c1 -7 2 -14 2 -22v-8c-1 -9 -6 -19 -14 -23c-44 -19 -94 -30 -145 -30s-101 11 -145 30c-8 4 -13 12 -13 21c-1 5 -1 7 -1 10c0 8 1 15 2 22c-53 -15 -83 -37 -83 -55c0 -31 94 -76 240 -76z" />
    <glyph glyph-name="user-alien" unicode="&#xe04a;" horiz-adv-x="448" 
d="M250 216c-6 0 -10 4 -10 10v6c0 26 22 48 50 48h20c6 0 10 -4 10 -10v-6c0 -26 -22 -48 -50 -48h-20zM198 216h-20c-28 0 -50 22 -50 48v6c0 6 4 10 10 10h20c28 0 50 -22 50 -48v-6c0 -6 -4 -10 -10 -10zM330 94c67 -7 118 -63 118 -131c0 -15 -12 -27 -27 -27h-394
c-15 0 -27 12 -27 27c0 68 51 124 118 131c17 -17 34 -33 51 -46h-36c-39 0 -73 -27 -82 -64h346c-9 37 -43 64 -82 64h-36c17 13 34 29 51 46zM209 56c-46 36 -153 128 -153 213c0 106 69 179 168 179s168 -73 168 -179c0 -85 -107 -177 -153 -213c-5 -3 -10 -5 -15 -5
s-10 2 -15 5zM224 400c-73 0 -120 -51 -120 -131c0 -40 47 -103 120 -163c73 60 120 123 120 163c0 80 -47 131 -120 131z" />
    <glyph glyph-name="user-robot" unicode="&#xe04b;" horiz-adv-x="448" 
d="M280 248c-18 0 -32 14 -32 32s14 32 32 32s32 -14 32 -32s-14 -32 -32 -32zM128 128c-35 0 -64 29 -64 64v128c0 35 29 64 64 64h72v40c0 13 11 24 24 24s24 -11 24 -24v-40h72c35 0 64 -29 64 -64v-128c0 -35 -29 -64 -64 -64h-192zM112 320v-128c0 -9 7 -16 16 -16h16
v32h32v-32h32v32h32v-32h32v32h32v-32h16c9 0 16 7 16 16v128c0 9 -7 16 -16 16h-192c-9 0 -16 -7 -16 -16zM168 248c-18 0 -32 14 -32 32s14 32 32 32s32 -14 32 -32s-14 -32 -32 -32zM416 320c18 0 32 -14 32 -32v-64c0 -18 -14 -32 -32 -32v128zM32 192
c-18 0 -32 14 -32 32v64c0 18 14 32 32 32v-128zM352 96c53 0 96 -43 96 -96v-32c0 -18 -14 -32 -32 -32h-384c-18 0 -32 14 -32 32v32c0 53 43 96 96 96h256zM400 -16v16c0 26 -22 48 -48 48h-256c-26 0 -48 -22 -48 -48v-16h80c0 18 14 32 32 32h128c18 0 32 -14 32 -32
h80z" />
    <glyph glyph-name="user-visor" unicode="&#xe04c;" horiz-adv-x="448" 
d="M275 144c95 0 173 -78 173 -173c0 -19 -16 -35 -35 -35h-378c-19 0 -35 16 -35 35c0 95 78 173 173 173h102zM49 -16h350c-6 63 -60 112 -124 112h-102c-64 0 -118 -49 -124 -112zM105 273c-14 4 -25 16 -25 31v48c0 18 14 32 32 32h2c22 38 63 64 110 64s88 -26 110 -64
h2c18 0 32 -14 32 -32v-48c0 -15 -11 -27 -25 -31c-19 -47 -65 -81 -119 -81s-100 34 -119 81zM224 240c26 0 49 13 64 32h-128c15 -19 38 -32 64 -32zM224 400c-18 0 -34 -6 -48 -16h96c-14 10 -30 16 -48 16zM128 336v-16h192v16h-192zM309 79c17 -21 26 -46 27 -76
c0 -1 -1 -2 -2 -3h-2c-1 0 -2 1 -2 1c-11 15 -16 20 -18 21h-1c-3 -1 -11 -5 -33 -21c-1 -1 -3 -1 -4 0s-2 2 -2 3c3 31 14 56 32 75c0 0 1 1 3 1c1 0 2 -1 2 -1z" />
    <glyph glyph-name="vacuum" unicode="&#xe04d;" horiz-adv-x="640" 
d="M640 328c0 -44 -24 -81 -59 -102c18 -30 27 -64 27 -98v-128c0 -35 -29 -64 -64 -64h-66c14 13 24 30 29 48h37c9 0 16 7 16 16v128c0 79 -65 144 -144 144h-16v-144c-17 0 -33 -4 -48 -11v171c0 18 14 32 32 32h32c51 0 100 -20 136 -56c30 15 46 48 38 81
c-8 32 -36 55 -70 55h-210c-34 0 -64 -24 -71 -57l-60 -279h45c18 0 32 -14 32 -32v-64c0 -18 -14 -32 -32 -32h-208c-9 0 -16 7 -16 16v16c0 53 43 96 96 96h34l62 289c12 55 61 95 118 95h210c66 0 120 -54 120 -120zM208 16h-112c-20 0 -38 -13 -45 -32h157v32zM400 96
c44 0 80 -36 80 -80s-36 -80 -80 -80s-80 36 -80 80s36 80 80 80zM400 0c9 0 16 7 16 16s-7 16 -16 16s-16 -7 -16 -16s7 -16 16 -16z" />
    <glyph glyph-name="vacuum-robot" unicode="&#xe04e;" 
d="M256 432c133 0 240 -107 240 -240s-107 -240 -240 -240s-240 107 -240 240s107 240 240 240zM256 0c106 0 192 86 192 192s-86 192 -192 192s-192 -86 -192 -192s86 -192 192 -192zM256 352c88 0 160 -72 160 -160c0 -43 -17 -83 -47 -113c-5 -5 -11 -7 -17 -7
s-12 2 -17 7c-9 9 -9 24 0 34c21 21 33 49 33 79c0 62 -50 112 -112 112c-30 0 -58 -12 -79 -33c-10 -9 -25 -9 -34 0c-10 9 -10 25 0 34c30 30 70 47 113 47zM155 219l128 -128c7 -6 7 -16 0 -22c-3 -3 -7 -5 -11 -5s-8 2 -11 5l-128 128c-7 6 -6 15 0 22s16 7 22 0z
M139 139l64 -64c7 -6 7 -16 0 -22c-3 -3 -7 -5 -11 -5s-8 2 -11 5l-64 64c-7 6 -6 15 0 22s16 7 22 0zM235 235l64 -64c7 -6 7 -16 0 -22c-3 -3 -7 -5 -11 -5s-8 2 -11 5l-64 64c-7 6 -6 15 0 22s16 7 22 0z" />
    <glyph glyph-name="window-frame" unicode="&#xe04f;" 
d="M488 -16c13 0 24 -11 24 -24v0c0 -13 -11 -24 -24 -24h-464c-13 0 -24 11 -24 24v0c0 13 11 24 24 24h8v432c0 18 14 32 32 32h384c18 0 32 -14 32 -32v-432h8zM232 -16v192h-152v-192h152zM232 224v176h-152v-176h152zM432 -16v192h-152v-192h152zM432 224v176h-152
v-176h152z" />
    <glyph glyph-name="window-frame-open" unicode="&#xe050;" 
d="M488 -16c13 0 24 -11 24 -24v0c0 -13 -11 -24 -24 -24h-464c-13 0 -24 11 -24 24v0c0 13 11 24 24 24h8v144h48v-144h352v144h48v-144h8zM480 416v-240h-448v240c0 18 14 32 32 32h384c18 0 32 -14 32 -32zM232 224v176h-152v-176h152zM432 224v176h-152v-176h152z" />
    <glyph glyph-name="coffin-cross" unicode="&#xe051;" horiz-adv-x="384" 
d="M375 333c8 -8 11 -20 8 -31l-87 -342c-4 -14 -17 -24 -32 -24h-144c-15 0 -28 10 -32 24l-87 342c-3 11 0 23 8 31l108 106c6 6 15 9 23 9h104c8 0 17 -3 23 -9zM253 -16l81 321l-96 95h-92l-96 -95l81 -321h122zM216 328v-40h48c13 0 24 -11 24 -24v0
c0 -13 -11 -24 -24 -24h-48v-120c0 -13 -11 -24 -24 -24v0c-13 0 -24 11 -24 24v120h-48c-13 0 -24 11 -24 24v0c0 13 11 24 24 24h48v40c0 13 11 24 24 24v0c13 0 24 -11 24 -24z" />
    <glyph glyph-name="folder-arrow-down" unicode="&#xe053;" 
d="M448 352c35 0 64 -29 64 -64v-256c0 -35 -29 -64 -64 -64h-384c-35 0 -64 29 -64 64v320c0 35 29 64 64 64h118c16 0 33 -7 45 -19l49 -45h172zM464 32v256c0 9 -7 16 -16 16h-192l-63 59c-3 3 -7 5 -11 5h-118c-9 0 -16 -7 -16 -16v-320c0 -9 7 -16 16 -16h384
c9 0 16 7 16 16zM319 177c9 9 25 9 34 0s9 -25 0 -34l-80 -80c-5 -5 -11 -7 -17 -7s-12 2 -17 7l-80 80c-9 9 -9 25 0 34s25 9 34 0l39 -39v102c0 13 11 24 24 24s24 -11 24 -24v-102z" />
    <glyph glyph-name="folder-arrow-up" unicode="&#xe054;" 
d="M273 257l80 -80c9 -9 9 -25 0 -34c-5 -5 -11 -7 -17 -7s-12 2 -17 7l-39 39v-102c0 -13 -11 -24 -24 -24s-24 11 -24 24v102l-39 -39c-9 -9 -25 -9 -34 0s-9 25 0 34l80 80c9 9 25 9 34 0zM448 352c35 0 64 -29 64 -64v-256c0 -35 -29 -64 -64 -64h-384
c-35 0 -64 29 -64 64v320c0 35 29 64 64 64h118c16 0 33 -7 45 -19l49 -45h172zM464 32v256c0 9 -7 16 -16 16h-192l-63 59c-3 3 -7 5 -11 5h-118c-9 0 -16 -7 -16 -16v-320c0 -9 7 -16 16 -16h384c9 0 16 7 16 16z" />
    <glyph glyph-name="user-unlock" unicode="&#xe058;" horiz-adv-x="640" 
d="M224 192c-71 0 -128 57 -128 128s57 128 128 128s128 -57 128 -128s-57 -128 -128 -128zM224 400c-44 0 -80 -36 -80 -80s36 -80 80 -80s80 36 80 80s-36 80 -80 80zM592 160c26 0 48 -22 48 -48v-128c0 -26 -22 -48 -48 -48h-192c-26 0 -48 22 -48 48v128
c0 26 22 48 48 48h16v80c0 44 36 80 80 80h8c42 -5 72 -43 72 -85v-11h-48v16c0 18 -14 32 -32 32s-32 -14 -32 -32v-80h128zM496 16c18 0 32 14 32 32s-14 32 -32 32s-32 -14 -32 -32s14 -32 32 -32zM320 -16c0 -18 6 -35 16 -48h-304c-18 0 -32 14 -32 32
c0 97 79 176 176 176h96c18 0 36 -3 52 -8c-2 -7 -4 -16 -4 -24v-26c-15 7 -31 10 -48 10h-96c-65 0 -119 -49 -127 -112h271z" />
    <glyph glyph-name="bacteria" unicode="&#xe059;" horiz-adv-x="640" 
d="M192 320c9 0 16 -7 16 -16s-7 -16 -16 -16s-16 7 -16 16s7 16 16 16zM112 224c9 0 16 -7 16 -16s-7 -16 -16 -16s-16 7 -16 16s7 16 16 16zM400 64c9 0 16 -7 16 -16s-7 -16 -16 -16s-16 7 -16 16s7 16 16 16zM614 217c0 -7 0 -13 -1 -20c-2 -10 -4 -19 -7 -29l12 -4
c9 -3 14 -13 11 -22s-14 -14 -23 -11l-11 4c-6 -16 -14 -30 -23 -44l10 -7c7 -6 9 -17 3 -25c-5 -7 -17 -9 -25 -3l-9 6c-11 -12 -22 -24 -35 -35l7 -9c6 -8 4 -19 -3 -25c-8 -6 -19 -4 -25 4l-7 9c-14 -9 -29 -17 -44 -23l4 -11c3 -9 -2 -19 -11 -23c-9 -3 -19 2 -23 11
l-4 11c-29 -8 -41 -9 -48 -8l-4 -14c-2 -9 -12 -15 -21 -12c-10 2 -16 12 -13 21l3 14c-14 7 -26 19 -35 33l-13 -4c-10 -2 -19 3 -22 12c-3 10 2 20 12 22l13 4c-1 17 3 33 11 47l-10 10c-8 6 -8 17 -2 25c7 7 18 7 25 1l11 -9c10 7 21 12 34 14l12 3l-4 9c-4 9 0 19 9 23
s19 0 23 -9l4 -9c14 9 26 20 35 34l-9 4c-9 5 -13 15 -8 24c4 9 14 13 23 9l10 -5c1 5 2 9 3 14c2 12 7 23 13 32l-10 10c-7 7 -7 19 0 25c10 10 22 4 26 0l9 -10c24 14 45 12 47 12l4 14c2 8 11 15 22 12c9 -2 15 -12 12 -21l-3 -14c15 -7 27 -19 35 -33l13 4
c9 2 19 -2 22 -12s-2 -20 -12 -22zM370 8c101 17 181 97 197 198c2 10 0 19 -6 27c-5 8 -14 13 -23 14c-2 1 -4 1 -6 1c-18 0 -33 -13 -36 -30c-11 -71 -67 -127 -138 -138c-9 -2 -18 -7 -23 -15c-6 -8 -8 -17 -7 -27c3 -17 19 -30 36 -30h6zM272 222c-9 -4 -19 0 -23 9
l-4 9c-14 -9 -26 -20 -35 -34l9 -4c9 -5 13 -15 8 -24c-4 -9 -14 -13 -23 -9l-10 5c-1 -5 -2 -9 -3 -14c-2 -12 -7 -23 -13 -32l10 -10c7 -7 7 -19 0 -25c-10 -10 -22 -4 -26 0l-9 10c-24 -14 -45 -12 -47 -12l-4 -14c-2 -8 -9 -13 -17 -13c-15 0 -19 15 -17 22l3 14
c-15 7 -27 19 -35 33l-13 -4c-9 -2 -19 2 -22 12s2 20 12 22l13 4c0 7 0 13 1 20c2 10 4 19 7 29l-12 4c-9 3 -14 13 -11 22s14 14 23 11l11 -4c6 16 14 30 23 44l-10 7c-7 6 -9 17 -3 25c5 8 17 9 25 4l9 -7c11 12 22 24 35 35l-7 9c-6 8 -4 19 3 25c8 6 19 4 25 -4l7 -9
c14 9 29 17 44 23l-4 11c-3 9 2 20 11 23s19 -2 23 -11l4 -11c29 8 41 9 48 8l4 14c2 9 12 15 21 12c10 -2 16 -12 13 -21l-3 -14c14 -7 26 -19 35 -33l13 4c10 3 19 -3 22 -12c3 -10 -2 -19 -12 -22l-13 -4c1 -17 -3 -33 -11 -47l10 -10c8 -6 8 -17 2 -25
c-7 -7 -18 -7 -25 -1l-11 9c-10 -7 -21 -12 -34 -14l-12 -3l4 -9c4 -9 0 -19 -9 -23zM143 166c12 71 68 127 139 138c20 4 33 22 29 42c-1 7 -11 35 -41 30c-101 -17 -181 -97 -198 -198c-1 -10 1 -19 7 -27c5 -8 14 -13 23 -15c30 -5 40 24 41 30z" />
    <glyph glyph-name="bacterium" unicode="&#xe05a;" horiz-adv-x="576" 
d="M543 345c4 -12 -3 -26 -16 -29l-18 -6c1 -22 -4 -44 -14 -62l14 -13c9 -9 10 -24 1 -33c-4 -5 -11 -8 -17 -8s-12 2 -16 6l-14 13c-14 -10 -29 -17 -46 -20c-5 0 -10 -2 -15 -3l5 -13c6 -12 0 -26 -12 -31c-3 -1 -6 -2 -9 -2c-10 0 -18 5 -22 14l-6 13
c-18 -12 -34 -27 -47 -46l13 -6c12 -5 17 -19 11 -31c-4 -9 -12 -14 -21 -14c-4 0 -7 1 -10 3l-13 5c-2 -6 -3 -12 -5 -19c-2 -15 -8 -29 -17 -42l13 -13c10 -10 9 -25 0 -34c-5 -4 -11 -6 -17 -6s-12 2 -17 7l-13 13c-17 -11 -37 -17 -58 -17c-1 0 -3 1 -4 1l-5 -18
c-3 -11 -12 -18 -23 -18c-2 0 -4 0 -6 1c-13 3 -20 16 -17 29l5 18c-20 10 -36 26 -46 44l-18 -5c-3 -1 -5 -1 -7 -1c-10 0 -20 7 -23 17c-4 13 3 26 16 29l18 6c-1 8 -1 17 1 26c2 13 5 26 9 38l-15 5c-13 5 -19 18 -15 30c4 13 18 19 30 15l15 -5c9 20 19 40 31 58l-13 9
c-11 8 -13 23 -5 34c8 10 22 12 33 5l13 -10c14 17 29 33 46 47l-9 13c-8 10 -6 25 5 33c10 8 25 5 33 -5l9 -13c19 12 38 23 58 32l-5 14c-4 12 2 26 15 30c12 5 26 -2 30 -14l5 -15c14 4 28 8 43 10c7 1 15 2 22 2l5 17c3 13 16 20 29 17c12 -3 20 -16 17 -29l-5 -18
c19 -10 36 -25 46 -44l18 5c13 4 26 -3 30 -16zM452 267c10 14 14 31 11 48c-5 30 -32 53 -63 53c-3 0 -7 0 -10 -1c-142 -24 -254 -135 -277 -276c-3 -17 1 -34 11 -48s25 -23 41 -26c4 -1 8 -1 11 -1c31 0 58 22 63 53c15 88 84 157 171 172c17 3 32 12 42 26zM192 160
c18 0 32 -14 32 -32s-14 -32 -32 -32s-32 14 -32 32s14 32 32 32zM272 264c13 0 24 -11 24 -24s-11 -24 -24 -24s-24 11 -24 24s11 24 24 24z" />
    <glyph glyph-name="box-tissue" unicode="&#xe05b;" 
d="M133 128c-11 0 -21 8 -23 19l-61 272c-2 7 0 14 4 20c5 6 12 9 19 9h136c57 0 78 -28 86 -51c6 -17 22 -29 41 -29h105c8 0 15 -4 19 -10c5 -6 6 -14 4 -21l-61 -192c-4 -10 -13 -17 -23 -17h-246zM208 400h-106l51 -224h208l46 144h-72c-39 0 -74 25 -86 62
c-2 5 -7 18 -41 18zM460 224c29 -3 52 -27 52 -56v-176c0 -31 -25 -56 -56 -56h-400c-31 0 -56 25 -56 56v176c0 31 25 56 56 56h4l11 -48h-15c-4 0 -8 -4 -8 -8v-88h416v88c0 4 -4 8 -8 8h-11zM464 -8v40h-416v-40c0 -4 4 -8 8 -8h400c4 0 8 4 8 8z" />
    <glyph glyph-name="hand-holding-medical" unicode="&#xe05c;" horiz-adv-x="576" 
d="M552 136c16 -14 25 -33 24 -54c-1 -20 -11 -39 -27 -52l-101 -76c-16 -12 -35 -18 -55 -18h-369c-13 0 -24 11 -24 24s11 24 24 24h369c9 0 19 3 26 9l101 75c10 8 11 23 1 31c-8 7 -20 6 -28 0l-62 -46c-7 -6 -17 -9 -27 -9h-134c-8 0 -14 6 -14 14v0c0 8 6 14 14 14h60
c30 0 29 40 1 40h-144c-18 0 -36 -6 -50 -17l-41 -31h-72c-13 0 -24 11 -24 24s11 24 24 24h56l28 22c22 17 50 26 79 26h144c38 0 69 -30 69 -68h3l61 46c19 14 57 24 88 -2zM160 272c-9 0 -16 7 -16 16v64c0 9 7 16 16 16h64v64c0 9 7 16 16 16h64c9 0 16 -7 16 -16v-64
h64c9 0 16 -7 16 -16v-64c0 -9 -7 -16 -16 -16h-64v-64c0 -9 -7 -16 -16 -16h-64c-9 0 -16 7 -16 16v64h-64z" />
    <glyph glyph-name="hand-sparkles" unicode="&#xe05d;" horiz-adv-x="640" 
d="M640 16v0c0 -2 -2 -5 -4 -6l-49 -21v0v0l-21 -49c-1 -2 -4 -4 -6 -4s-5 2 -6 4l-21 49v0l-49 21c-2 1 -4 4 -4 6v0v0c0 2 2 5 4 6l49 21v0l21 49c1 2 4 4 6 4s5 -2 6 -4l21 -49v0l49 -21c2 -1 4 -4 4 -6zM480 55c10 19 16 40 16 63v179c0 13 -11 24 -24 24
c-2 0 -3 0 -5 -1c-11 -2 -19 -12 -19 -24v-103c0 -9 -7 -16 -16 -16s-16 7 -16 16v151c0 12 -8 22 -19 24c-2 1 -3 1 -5 1c-13 0 -24 -11 -24 -24v-152c0 -9 -7 -16 -16 -16s-16 7 -16 16v183c0 12 -8 22 -19 24c-2 1 -3 1 -5 1c-13 0 -24 -11 -24 -24v-182
c0 -10 -8 -18 -18 -18c-9 0 -17 7 -17 16c-1 9 -2 19 -3 28l-10 118c-1 13 -12 22 -24 22h-2c-14 -2 -23 -13 -22 -27l11 -102c3 -31 5 -61 7 -92c0 -10 -8 -16 -17 -16c-4 0 -9 2 -13 6l-24 36c-5 6 -12 10 -20 10c-5 0 -10 -1 -14 -4c-11 -8 -13 -23 -6 -34l69 -98
c25 -35 65 -56 107 -56h73c31 0 60 12 83 31c0 -14 9 -27 21 -34h2l8 -3c-31 -26 -71 -42 -114 -42h-73c-58 0 -113 29 -146 77l-69 98c-11 15 -15 35 -12 54c3 18 14 35 30 46c12 8 26 13 41 13c7 0 13 -1 20 -3c-1 2 -1 4 -1 6l-11 103c-4 39 25 74 65 79h7
c10 0 20 -2 29 -6c3 9 9 18 16 25c14 13 32 21 51 21v0c5 0 9 -1 14 -1c20 -4 37 -17 47 -34c6 2 13 3 19 3c5 0 9 -1 14 -1c26 -5 46 -24 54 -48c4 1 8 1 12 1c40 0 72 -32 72 -72v-173c-8 -4 -15 -10 -19 -17v-2l-16 -38zM80 256c-2 0 -5 2 -6 4l-21 49v0l-49 21
c-2 1 -4 4 -4 6v0v0c0 2 2 5 4 6l49 21v0l21 49c1 2 4 4 6 4s5 -2 6 -4l21 -49v0l8 -4c-2 -10 -4 -22 -2 -33l1 -14l-7 -3v0v0l-21 -49c-1 -2 -4 -4 -6 -4zM308 126l12 -30l30 -12c1 -1 2 -3 2 -4s-1 -3 -2 -4l-30 -12l-12 -30c-1 -1 -3 -2 -4 -2s-3 1 -4 2l-12 30l-30 12
c-1 1 -2 3 -2 4s1 3 2 4l30 12l12 30c1 1 3 2 4 2s3 -1 4 -2z" />
    <glyph glyph-name="hands-bubbles" unicode="&#xe05e;" horiz-adv-x="576" 
d="M576 256c0 -38 -26 -69 -61 -77c1 -2 3 -8 3 -18c13 -10 22 -24 25 -41c4 -20 -2 -40 -14 -55c-4 -4 -7 -8 -11 -11c0 -23 -12 -41 -26 -52c0 -15 -6 -30 -15 -41c-13 -16 -32 -25 -53 -25h-169c-40 0 -77 17 -104 44c-13 -26 -40 -44 -71 -44c-44 0 -80 36 -80 80
c0 36 24 66 56 76c-15 23 -24 51 -24 80v92c0 37 31 67 69 67c1 0 3 -1 4 -1l19 61c9 29 35 48 65 48c2 0 5 0 7 -1c4 0 8 -1 12 -2c11 8 24 12 38 12h8c20 -3 38 -14 49 -31c3 -4 5 -8 7 -13c14 -5 26 -14 35 -27c2 -4 5 -9 6 -13c15 -5 27 -15 35 -28c11 -17 14 -38 8 -57
l-12 -39c2 -6 4 -10 4 -13h36c-4 9 -6 19 -6 29c0 26 13 49 33 64h-1c-35 0 -64 29 -64 64s29 64 64 64s64 -29 64 -64c0 -20 -9 -37 -23 -49c2 0 5 1 7 1c44 0 80 -36 80 -80zM448 368c9 0 16 7 16 16s-7 16 -16 16s-16 -7 -16 -16s7 -16 16 -16zM311 305l-9 -29
c6 2 12 3 18 3c8 0 16 -1 23 -4l5 19c8 24 -29 36 -37 11zM307 334c7 25 -30 37 -38 11l-27 -86c0 -1 0 -1 -1 -1l46 14zM80 263v-91c0 -28 12 -52 30 -70v6c0 64 41 120 103 141l20 6c-3 2 -4 5 -3 8l35 112c8 24 -29 36 -38 11l-38 -124c-1 -2 -4 -4 -7 -4h-2
c-3 1 -5 5 -4 8l31 99c8 25 -29 37 -37 12l-49 -155l-1 41c0 11 -9 19 -20 20v0c-11 0 -20 -9 -20 -20zM80 -16c18 0 32 14 32 32s-14 32 -32 32s-32 -14 -32 -32s14 -32 32 -32zM477 88c12 0 21 11 19 23c-2 10 -11 16 -20 16h-130c-3 0 -6 4 -6 7s3 6 6 6h104
c13 0 22 11 20 23c-2 10 -11 16 -20 16h-162l38 14c11 3 16 14 13 24c-2 9 -10 14 -19 14c-1 0 -3 0 -5 -1l-88 -27c-41 -14 -69 -52 -69 -95v-26c0 -54 44 -98 97 -98h170c12 0 21 11 19 23c-2 10 -11 16 -20 16h-77c-4 0 -7 4 -7 7s3 6 7 6h104c12 0 21 11 19 23
c-2 10 -11 16 -20 16h-103c-4 0 -7 4 -7 7s3 6 7 6h130zM496 224c18 0 32 14 32 32s-14 32 -32 32s-32 -14 -32 -32s14 -32 32 -32z" />
    <glyph glyph-name="handshake-simple-slash" unicode="&#xe05f;" horiz-adv-x="640" 
d="M347 53l13 16l60 -47c-11 -3 -24 -2 -35 2c-13 -17 -30 -24 -49 -24c-15 0 -28 5 -41 16c-32 -22 -74 -21 -105 4l-85 76h-81c-13 0 -24 11 -24 24s11 24 24 24h100l97 -88c16 -13 41 -10 55 7l16 19l37 -32c2 -1 6 -2 9 -2s7 2 9 5zM616 96h-130c0 -1 -1 -2 -1 -3
l146 -114c10 -8 12 -23 4 -34c-8 -10 -23 -12 -34 -4l-483 379l-109 85c-10 8 -12 23 -4 34c5 6 12 9 19 9c5 0 10 -2 15 -5l114 -89c23 19 52 30 82 30h167c34 0 67 -13 91 -37l26 -27h97c13 0 24 -11 24 -24s-11 -24 -24 -24h-117l-48 46c-12 12 -28 18 -45 18h-58
c-10 0 -19 -4 -27 -11l-61 -56l38 -29l46 42c7 6 17 5 23 -1l11 -12c6 -6 5 -16 -1 -22l-41 -37l84 -66h196c13 0 24 -11 24 -24s-11 -24 -24 -24zM222 299c1 1 1 1 1 2l39 35h-35c-13 0 -26 -4 -37 -12zM24 272c-13 0 -24 11 -24 24s11 24 24 24h16l61 -48h-77z" />
    <glyph glyph-name="handshake-slash" unicode="&#xe060;" horiz-adv-x="640" 
d="M576 64c-18 0 -32 14 -32 32v176h-56c-4 1 -8 4 -11 8c-1 1 -41 54 -101 64c-10 1 -21 -2 -29 -10l-73 -75l28 -22l38 38c9 9 24 9 34 0c9 -9 9 -25 0 -34l-34 -34l291 -228c10 -8 12 -23 4 -34c-8 -10 -23 -12 -34 -4l-592 464c-10 8 -12 23 -4 34c5 6 12 9 19 9
c5 0 10 -2 15 -5l123 -96c22 18 55 38 95 44c22 4 45 -3 63 -18c18 15 41 21 63 18c62 -9 105 -51 123 -71h134v-256h-64zM592 128c-9 0 -16 -7 -16 -16s7 -16 16 -16s16 7 16 16s-7 16 -16 16zM236 289l49 50c-6 4 -14 6 -21 5c-25 -4 -47 -16 -63 -28zM373 44l8 9l59 -46
c-12 -4 -24 -4 -36 1c-8 -9 -20 -14 -33 -16c-16 -1 -31 3 -43 13l-1 1c-11 -7 -24 -12 -37 -14h-9c-19 0 -37 6 -52 19l-77 69h-61c-5 -9 -15 -16 -27 -16h-64v256h40l56 -44v-148h74l90 -81c6 -5 15 -8 25 -7c9 1 17 6 23 13l3 3l15 13l33 -27c2 -2 5 -2 7 -2c1 0 4 1 7 4
zM48 96c9 0 16 7 16 16s-7 16 -16 16s-16 -7 -16 -16s7 -16 16 -16z" />
    <glyph glyph-name="head-side-cough" unicode="&#xe061;" horiz-adv-x="640" 
d="M480 88c13 0 24 -11 24 -24s-11 -24 -24 -24s-24 11 -24 24s11 24 24 24zM477 173c10 -21 -6 -45 -29 -45h-32v-96c0 -35 -29 -64 -64 -64h-32v-8c0 -13 -11 -24 -24 -24s-24 11 -24 24v56h80c9 0 16 7 16 16v21l-56 8c-14 2 -24 13 -24 27s10 25 24 27l56 8v53h56
c-6 16 -12 35 -19 54c-12 36 -29 86 -40 102c-30 43 -79 68 -131 68h-35c-56 0 -110 -29 -135 -79c-31 -60 -15 -130 32 -172l16 -14v-175c0 -13 -11 -24 -24 -24s-24 11 -24 24v153c-41 37 -66 91 -64 150c4 105 96 185 200 185h34c69 0 132 -34 170 -88
c25 -35 52 -140 73 -187zM608 88c13 0 24 -11 24 -24s-11 -24 -24 -24s-24 11 -24 24s11 24 24 24zM608 136c-13 0 -24 11 -24 24s11 24 24 24s24 -11 24 -24s-11 -24 -24 -24zM544 40c13 0 24 -11 24 -24s-11 -24 -24 -24s-24 11 -24 24s11 24 24 24zM544 136
c13 0 24 -11 24 -24s-11 -24 -24 -24s-24 11 -24 24s11 24 24 24zM608 -8c13 0 24 -11 24 -24s-11 -24 -24 -24s-24 11 -24 24s11 24 24 24zM320 224c-18 0 -32 14 -32 32s14 32 32 32s32 -14 32 -32s-14 -32 -32 -32z" />
    <glyph glyph-name="head-side-cough-slash" unicode="&#xe062;" horiz-adv-x="640" 
d="M631 -21c10 -8 12 -23 4 -34c-8 -10 -23 -12 -34 -4l-592 464c-10 8 -12 23 -4 34c5 6 12 9 19 9c5 0 10 -2 15 -5l42 -33c34 24 75 38 119 38h34c69 0 132 -34 170 -88c25 -35 52 -140 73 -187c10 -21 -6 -45 -29 -45h-7zM379 176h45c-6 16 -12 35 -19 54
c-12 36 -29 86 -40 102c-30 43 -79 68 -131 68h-35c-28 0 -55 -8 -78 -21l169 -133c-1 3 -2 6 -2 10c0 18 14 32 32 32s32 -14 32 -32s-14 -32 -32 -32c-1 0 -2 0 -3 1zM58 306c-22 -56 -5 -118 38 -157l16 -14v-175c0 -13 -11 -24 -24 -24s-24 11 -24 24v153
c-41 37 -66 91 -64 151c1 26 8 51 19 73zM288 88c0 11 7 21 17 25l110 -87c-3 -32 -30 -58 -63 -58h-32v-8c0 -13 -11 -24 -24 -24s-24 11 -24 24v56h80c9 0 16 7 16 16v21l-56 8c-14 2 -24 13 -24 27zM608 136c-13 0 -24 11 -24 24s11 24 24 24s24 -11 24 -24
s-11 -24 -24 -24zM608 40c-13 0 -24 11 -24 24s11 24 24 24s24 -11 24 -24s-11 -24 -24 -24zM544 88c-13 0 -24 11 -24 24s11 24 24 24s24 -11 24 -24s-11 -24 -24 -24z" />
    <glyph glyph-name="head-side-mask" unicode="&#xe063;" 
d="M352 288c18 0 32 -14 32 -32s-14 -32 -32 -32s-32 14 -32 32s14 32 32 32zM509 173c4 -9 4 -19 -1 -27l-54 -152c-13 -35 -46 -58 -83 -58h-115c-18 0 -32 14 -32 32v161l-176 119c3 -38 20 -74 48 -99l16 -14v-175c0 -13 -11 -24 -24 -24s-24 11 -24 24v153
c-41 37 -66 90 -64 150c4 104 94 185 198 185h68c69 0 132 -34 170 -88c25 -35 52 -140 73 -187zM440 96l11 32h-179v-144h99c13 0 25 6 32 16h-67c-9 0 -16 7 -16 16s7 16 16 16h80l12 32h-92c-9 0 -16 7 -16 16s7 16 16 16h104zM240 176h216c-6 16 -12 35 -19 54
c-12 36 -29 86 -40 102c-30 43 -79 68 -131 68h-68c-56 0 -110 -30 -135 -80c-3 -6 -5 -13 -7 -19z" />
    <glyph glyph-name="head-side-virus" unicode="&#xe064;" 
d="M320 145c-3 0 -7 2 -10 5l-7 7c-18 18 -49 5 -49 -20v-11c0 -8 -6 -14 -14 -14s-14 6 -14 14v11c0 25 -31 38 -49 20l-7 -7c-3 -3 -6 -5 -10 -5s-8 2 -10 5c-6 5 -6 14 0 20l7 7c18 18 5 49 -20 49h-11c-8 0 -14 6 -14 14s6 14 14 14h11c25 0 38 31 20 49l-7 7
c-6 6 -6 15 0 21c5 5 14 5 20 0l7 -8c18 -18 49 -5 49 20v11c0 8 6 14 14 14s14 -6 14 -14v-11c0 -25 31 -38 49 -20l7 7c6 6 15 6 21 0c5 -5 5 -14 0 -20l-8 -7c-18 -18 -5 -49 20 -49h11c8 0 14 -6 14 -14s-6 -14 -14 -14h-11c-25 0 -38 -31 -20 -49l8 -7
c5 -6 5 -15 0 -21c-3 -2 -7 -4 -11 -4zM208 240c9 0 16 7 16 16s-7 16 -16 16s-16 -7 -16 -16s7 -16 16 -16zM272 208c9 0 16 7 16 16s-7 16 -16 16s-16 -7 -16 -16s7 -16 16 -16zM509 173c10 -21 -6 -45 -29 -45h-32v-64c0 -35 -29 -64 -64 -64h-32v-40
c0 -13 -11 -24 -24 -24s-24 11 -24 24v88h80c9 0 16 7 16 16v112h56c-6 16 -12 35 -19 54c-12 36 -29 86 -40 102c-30 43 -79 68 -131 68h-67c-56 0 -110 -29 -135 -79c-31 -60 -15 -130 32 -172l16 -14v-175c0 -13 -11 -24 -24 -24s-24 11 -24 24v153
c-41 37 -66 91 -64 150c4 105 96 185 200 185h66c69 0 132 -34 170 -88c25 -35 52 -140 73 -187z" />
    <glyph glyph-name="house-user" unicode="&#xe065;" horiz-adv-x="576" 
d="M568 224c10 -9 11 -24 2 -34c-4 -5 -11 -8 -18 -8c-5 0 -11 2 -16 5l-24 21v-202c0 -36 -29 -64 -64 -64h-320c-35 0 -64 28 -64 64v202l-24 -21c-11 -8 -26 -7 -34 3c-9 10 -8 25 2 34l264 224c9 8 23 8 32 0l160 -136v86c0 13 11 24 24 24s24 -11 24 -24v-127zM464 6
v243l-176 149l-177 -150c1 0 1 -1 1 -2v-240c0 -9 7 -16 16 -16h320c9 0 16 7 16 16zM224 230c0 35 29 64 64 64s64 -29 64 -64c0 -36 -29 -64 -64 -64s-64 28 -64 64zM256 134h64c44 0 80 -36 80 -80c0 -9 -7 -16 -16 -16h-192c-9 0 -16 7 -16 16c0 44 36 80 80 80z" />
    <glyph glyph-name="house-laptop" unicode="&#xe066;" horiz-adv-x="640" 
d="M616 -16c13 0 24 -11 24 -24s-11 -24 -24 -24h-336c-13 0 -24 11 -24 24s11 24 24 24h24v152c0 22 18 40 40 40h208c22 0 40 -18 40 -40v-152h24zM544 -16v144h-192v-144h192zM208 256h64c9 0 16 -7 16 -16v-64c0 -9 -7 -16 -16 -16h-64c-9 0 -16 7 -16 16v64
c0 9 7 16 16 16zM272 80v-48h-160c-26 0 -48 21 -48 48v155l-24 -21c-10 -9 -25 -8 -34 2s-8 25 2 34l216 192c9 8 23 8 32 0l112 -100v50c0 13 11 24 24 24s24 -11 24 -24v-92l56 -50c10 -9 11 -24 2 -34c-5 -5 -11 -8 -18 -8c-6 0 -11 2 -16 6l-24 21v-27h-48v70l-128 114
l-128 -114v-198h160z" />
    <glyph glyph-name="lungs-virus" unicode="&#xe067;" horiz-adv-x="640" 
d="M196 4c9 -10 21 -14 33 -15c3 0 6 1 8 1c-12 -16 -31 -29 -52 -34c-63 -17 -69 -20 -87 -20c-52 0 -98 40 -98 92c0 10 1 20 4 30c22 81 56 159 102 231c22 34 36 63 80 63c39 0 70 -29 70 -66v-28c-8 6 -17 8 -27 8c-7 0 -14 -1 -21 -5v25c0 10 -10 18 -22 18
c-14 0 -17 -5 -40 -41c-43 -68 -75 -141 -96 -218c-10 -37 18 -61 48 -61c10 0 10 1 74 18c7 2 13 5 18 9c2 -2 3 -5 6 -7zM344 297c-7 4 -15 7 -24 7s-17 -3 -24 -7v127c0 13 11 24 24 24s24 -11 24 -24v-127zM422 26c-3 -3 -6 -4 -11 -4s-9 1 -12 4l-8 9
c-21 20 -55 6 -55 -23v-12c0 -9 -7 -16 -16 -16s-16 7 -16 16v12c0 29 -34 43 -55 23l-8 -9c-3 -3 -6 -4 -11 -4s-9 1 -12 4c-6 6 -6 17 0 23l9 8c20 21 6 55 -23 55h-12c-9 0 -16 7 -16 16s7 16 16 16h12c29 0 43 34 23 55l-9 8c-6 6 -6 17 0 23s17 6 23 0l8 -9
c21 -20 55 -6 55 23v12c0 9 7 16 16 16s16 -7 16 -16v-12c0 -29 34 -43 55 -23l8 9c6 6 17 6 23 0s6 -17 0 -23l-9 -8c-20 -21 -6 -55 23 -55h12c9 0 16 -7 16 -16s-7 -16 -16 -16h-12c-29 0 -43 -34 -23 -55l9 -8c6 -6 6 -17 0 -23zM288 144c9 0 16 7 16 16s-7 16 -16 16
s-16 -7 -16 -16s7 -16 16 -16zM352 80c9 0 16 7 16 16s-7 16 -16 16s-16 -7 -16 -16s7 -16 16 -16zM636 58c3 -10 4 -20 4 -30c0 -52 -46 -92 -98 -92c-18 0 -25 3 -87 20c-21 5 -40 18 -52 34h7c13 0 25 5 34 14c3 2 4 5 6 7c5 -4 11 -7 18 -9c64 -17 64 -18 74 -18
c30 0 58 24 48 62c-21 76 -53 149 -96 217c-23 36 -26 41 -40 41c-12 0 -22 -8 -22 -18v-25c-7 4 -14 6 -22 6c-9 0 -18 -3 -26 -8v27c0 37 31 66 70 66c44 0 58 -29 80 -63c46 -72 80 -150 102 -231z" />
    <glyph glyph-name="people-arrows-left-right" unicode="&#xe068;" horiz-adv-x="576" 
d="M112 105v-1l48 -47v-97c0 -13 -11 -24 -24 -24s-24 11 -24 24v145zM48 224v-80h32v-184c0 -13 -11 -24 -24 -24s-24 11 -24 24v136c-18 0 -32 14 -32 32v96c0 35 29 64 64 64h64c24 0 45 -14 56 -34c-3 -2 -5 -4 -8 -6l-32 -33v9c0 9 -7 16 -16 16h-64
c-9 0 -16 -7 -16 -16zM96 320c-35 0 -64 29 -64 64s29 64 64 64s64 -29 64 -64s-29 -64 -64 -64zM480 320c-35 0 -64 29 -64 64s29 64 64 64s64 -29 64 -64s-29 -64 -64 -64zM416 57l48 47v1v-145c0 -13 -11 -24 -24 -24s-24 11 -24 24v97zM512 288c35 0 64 -29 64 -64v-96
c0 -18 -14 -32 -32 -32v-136c0 -13 -11 -24 -24 -24s-24 11 -24 24v184h32v80c0 9 -7 16 -16 16h-64c-9 0 -16 -7 -16 -16v-9l-32 33c-3 2 -5 4 -8 6c11 20 32 34 56 34h64zM441 161c9 -9 9 -25 0 -34l-64 -64c-5 -5 -11 -7 -17 -7s-12 2 -17 7c-9 9 -9 25 0 34l23 23h-156
l23 -23c9 -9 9 -25 0 -34c-5 -5 -11 -7 -17 -7s-12 2 -17 7l-64 64c-9 9 -9 25 0 34l64 64c9 9 25 9 34 0s9 -25 0 -34l-23 -23h156l-23 23c-9 9 -9 25 0 34s25 9 34 0z" />
    <glyph glyph-name="plane-slash" unicode="&#xe069;" horiz-adv-x="640" 
d="M631 -21c10 -8 12 -23 4 -34c-8 -10 -23 -12 -34 -4l-592 464c-10 8 -12 23 -4 34c5 6 12 9 19 9c5 0 10 -2 15 -5l176 -138l-33 102c-2 10 0 20 6 28s15 13 25 13h66c11 0 22 -7 27 -16l101 -160h89c38 0 112 -31 112 -80s-74 -80 -112 -80h-35zM281 253l119 -93h96
c26 0 63 22 64 32c-1 10 -38 32 -64 32h-116l-110 176h-35zM270 -16l65 105l38 -30l-66 -107c-6 -10 -17 -16 -28 -16h-66c-10 0 -19 5 -25 13s-8 18 -5 28l42 135h-41l-38 -51c-6 -8 -16 -13 -26 -13h-56c-10 0 -19 4 -25 12s-8 18 -6 28l30 104l-30 104c-2 9 0 18 5 26
l49 -39l26 -91l-28 -96h27l48 64h84l37 -29l-46 -147h35z" />
    <glyph glyph-name="pump-medical" unicode="&#xe06a;" horiz-adv-x="384" 
d="M187 155h40c7 0 13 -6 13 -14v-26c0 -8 -6 -14 -13 -14h-40v-40c0 -7 -6 -13 -14 -13h-26c-8 0 -14 6 -14 13v40h-40c-7 0 -13 6 -13 14v26c0 8 6 14 13 14h40v40c0 7 6 13 14 13h26c8 0 14 -6 14 -13v-40zM377 345c9 -9 9 -25 0 -34c-5 -5 -11 -7 -17 -7s-12 2 -17 7
l-49 49h-54v-40c31 -3 56 -27 59 -58l21 -256c3 -38 -26 -70 -64 -70h-192c-38 0 -67 32 -64 70l21 256c2 31 28 55 59 58v96c0 18 14 32 32 32h96c18 0 32 -14 32 -32v-8h64c6 0 12 -3 17 -7zM128 400v-80h64v80h-64zM252 258c-1 8 -8 14 -16 14h-152c-8 0 -15 -6 -16 -15
l-20 -255c-1 -11 7 -18 16 -18h192c10 0 17 9 16 17z" />
    <glyph glyph-name="pump-soap" unicode="&#xe06b;" horiz-adv-x="384" 
d="M152 204c4 5 12 5 16 0c16 -22 52 -72 52 -97c0 -33 -27 -59 -60 -59s-60 26 -60 59c0 25 36 75 52 97zM377 345c9 -9 9 -25 0 -34c-5 -5 -11 -7 -17 -7s-12 2 -17 7l-49 49h-54v-40c31 -3 56 -27 59 -58l21 -256c3 -38 -26 -70 -64 -70h-192c-38 0 -67 32 -64 70l21 256
c2 31 28 55 59 58v96c0 18 14 32 32 32h96c18 0 32 -14 32 -32v-8h64c6 0 12 -3 17 -7zM128 400v-80h64v80h-64zM252 258c-1 8 -8 14 -16 14h-152c-8 0 -15 -6 -16 -15l-20 -255c-1 -11 7 -18 16 -18h192c10 0 17 9 16 17z" />
    <glyph glyph-name="shield-virus" unicode="&#xe06c;" 
d="M240 336c0 9 7 16 16 16s16 -7 16 -16v-12c0 -29 34 -43 55 -23l8 9c6 6 17 6 23 0s6 -17 0 -23l-9 -8c-20 -21 -6 -55 23 -55h12c9 0 16 -7 16 -16s-7 -16 -16 -16h-12c-29 0 -43 -34 -23 -55l9 -8c6 -6 6 -17 0 -23c-3 -3 -6 -4 -11 -4s-9 1 -12 4l-8 9
c-21 20 -55 6 -55 -23v-12c0 -9 -7 -16 -16 -16s-16 7 -16 16v12c0 29 -34 43 -55 23l-8 -9c-3 -3 -6 -4 -11 -4s-9 1 -12 4c-6 6 -6 17 0 23l9 8c20 21 6 55 -23 55h-12c-9 0 -16 7 -16 16s7 16 16 16h12c29 0 43 34 23 55l-9 8c-6 6 -6 17 0 23s17 6 23 0l8 -9
c21 -20 55 -6 55 23v12zM224 224c9 0 16 7 16 16s-7 16 -16 16s-16 -7 -16 -16s7 -16 16 -16zM288 192c-9 0 -16 -7 -16 -16s7 -16 16 -16s16 7 16 16s-7 16 -16 16zM466 364c18 -7 30 -25 30 -44c0 -221 -136 -345 -222 -380c-6 -3 -12 -4 -18 -4s-13 1 -18 4
c-108 44 -222 182 -222 380c0 19 12 37 30 44l192 80c4 2 13 4 18 4s14 -2 18 -4zM256 400v0v0zM256 -16c66 28 192 134 192 336l-192 80h-1l-191 -80c0 -176 100 -297 192 -336z" />
    <glyph glyph-name="sink" unicode="&#xe06d;" 
d="M488 160c13 0 24 -11 24 -24v0c0 -13 -11 -24 -24 -24h-8v-80c0 -53 -43 -96 -96 -96h-256c-53 0 -96 43 -96 96v80h-8c-13 0 -24 11 -24 24v0c0 13 11 24 24 24h88v32h-56c-13 0 -24 11 -24 24v0c0 13 11 24 24 24h72c18 0 32 -14 32 -32v-48h72v196c0 46 34 87 79 92
c53 5 97 -37 97 -88v-16c0 -13 -11 -24 -24 -24v0c-13 0 -24 11 -24 24v14c0 21 -15 40 -36 42c-24 2 -44 -17 -44 -40v-200h72v48c0 18 14 32 32 32h72c13 0 24 -11 24 -24v0c0 -13 -11 -24 -24 -24h-56v-32h88zM432 32v80h-352v-80c0 -26 22 -48 48 -48h256
c26 0 48 22 48 48z" />
    <glyph glyph-name="soap" unicode="&#xe06e;" 
d="M384 384c-18 0 -32 14 -32 32s14 32 32 32s32 -14 32 -32s-14 -32 -32 -32zM208 352c-26 0 -48 22 -48 48s22 48 48 48s48 -22 48 -48s-22 -48 -48 -48zM416 256c53 0 96 -43 96 -96v-128c0 -53 -43 -96 -96 -96h-320c-53 0 -96 43 -96 96v128c0 53 43 96 96 96h146
c-1 5 -2 11 -2 16c0 44 36 80 80 80s80 -36 80 -80c0 -5 -1 -11 -2 -16h18zM320 304c-18 0 -32 -14 -32 -32s14 -32 32 -32s32 14 32 32s-14 32 -32 32zM464 32v128c0 26 -22 48 -48 48h-49c-13 -10 -29 -16 -47 -16s-34 6 -47 16h-177c-26 0 -48 -22 -48 -48v-128
c0 -26 22 -48 48 -48h320c26 0 48 22 48 48zM352 160c35 0 64 -29 64 -64s-29 -64 -64 -64h-192c-35 0 -64 29 -64 64s29 64 64 64h192zM352 64c18 0 32 14 32 32s-14 32 -32 32h-192c-18 0 -32 -14 -32 -32s14 -32 32 -32h192z" />
    <glyph glyph-name="stopwatch-20" unicode="&#xe06f;" horiz-adv-x="448" 
d="M425 295l-31 -31c24 -34 38 -75 38 -120c0 -115 -93 -208 -208 -208s-208 93 -208 208c0 107 80 195 184 206v50h-32c-13 0 -24 11 -24 24s11 24 24 24h112c13 0 24 -11 24 -24s-11 -24 -24 -24h-32v-49c43 -5 83 -24 114 -51l29 29c9 9 25 9 34 0s9 -25 0 -34zM224 -16
c88 0 160 72 160 160s-72 160 -160 160s-160 -72 -160 -160s72 -160 160 -160zM288 244c29 0 52 -23 52 -52v-96c0 -29 -23 -52 -52 -52s-52 23 -52 52v96c0 29 23 52 52 52zM300 96v96c0 7 -5 12 -12 12s-12 -5 -12 -12v-96c0 -7 5 -12 12 -12s12 5 12 12zM212 196
c0 -29 -11 -55 -30 -74c-10 -10 -16 -24 -18 -38h28c11 0 20 -9 20 -20s-9 -20 -20 -20h-48c-11 0 -20 9 -20 20v14c0 27 11 53 30 72c11 12 18 28 18 44c0 13 -16 11 -16 2c0 -11 -9 -20 -20 -20s-20 9 -20 20c0 26 22 48 48 48s48 -22 48 -48z" />
    <glyph glyph-name="shop-slash" unicode="&#xe070;" horiz-adv-x="640" 
d="M576 22l55 -43c10 -8 12 -23 4 -34c-5 -6 -12 -9 -19 -9c-5 0 -10 2 -15 5l-592 464c-10 8 -12 23 -4 34c8 10 23 12 34 4l43 -34l14 23c5 10 16 16 28 16h392c12 0 23 -6 28 -16l92 -160c12 -22 -3 -48 -28 -48h-32v-202zM528 59v165h-210zM133 400l-12 -21l136 -107
h323l-73 128h-374zM112 128h174l98 -77v-67c0 -26 -21 -48 -48 -48h-224c-26 0 -48 22 -48 48v240h-32c-25 0 -40 26 -28 48l31 53l38 -30l-13 -23h42l61 -48h-51v-96zM336 -16v96h-224v-96h224z" />
    <glyph glyph-name="store-slash" unicode="&#xe071;" horiz-adv-x="640" 
d="M631 -21c10 -8 12 -23 4 -34c-5 -6 -12 -9 -19 -9c-5 0 -10 2 -15 5l-592 464c-10 8 -12 23 -4 34c8 10 23 12 34 4l59 -46l17 28c9 14 25 23 42 23h326c17 0 33 -9 42 -23l52 -83c18 -28 20 -63 6 -93c-14 -29 -40 -48 -71 -52c-4 -1 -9 -1 -14 -1c-21 0 -42 6 -59 18
c-27 -18 -62 -22 -92 -13l149 -116v79h2c6 0 12 0 18 1c10 1 19 4 28 7v-125zM157 400l-21 -33l149 -117c6 3 12 7 17 12l18 20l18 -20c21 -23 62 -23 83 0l18 20l18 -20c12 -13 31 -20 49 -18c15 2 27 11 33 25c7 16 6 33 -3 48l-52 82zM469 -16l50 -39
c-9 -6 -20 -9 -31 -9h-336c-31 0 -56 25 -56 56v180c9 -3 18 -6 27 -7c6 -1 12 -1 18 -1h3v-52h162l61 -48h-223v-72c0 -4 4 -8 8 -8h317zM128 197c-31 4 -57 23 -71 52c-9 20 -11 42 -6 63l48 -38c1 -2 1 -3 2 -5c6 -14 18 -23 33 -25h3l49 -38c-13 -6 -27 -10 -42 -10v0
h-3c-4 0 -9 0 -13 1z" />
    <glyph glyph-name="toilet-paper-slash" unicode="&#xe072;" horiz-adv-x="640" 
d="M631 -21c10 -8 12 -23 4 -34c-8 -10 -23 -12 -34 -4l-482 378l-110 86c-10 8 -12 23 -4 34c5 6 12 9 19 9c5 0 10 -2 15 -5l60 -48c20 33 47 53 77 53h320c62 0 112 -86 112 -192c0 -93 -39 -171 -90 -188zM384 256c0 57 15 109 38 144h-246c-12 0 -26 -12 -39 -34
l247 -194v84zM496 112c26 0 64 57 64 144s-38 144 -64 144c-25 0 -64 -57 -64 -144s39 -144 64 -144zM365 -16c8 23 14 43 17 68l43 -34c-5 -21 -11 -40 -18 -60c-4 -13 -16 -22 -30 -22h-329c-11 0 -19 11 -15 21c21 64 31 86 31 127v172c0 15 1 29 3 43l45 -36v-7v-172
c0 -38 -7 -62 -19 -100h272zM496 304c13 0 24 -22 24 -48s-11 -48 -24 -48s-24 22 -24 48s11 48 24 48z" />
    <glyph glyph-name="users-slash" unicode="&#xe073;" horiz-adv-x="640" 
d="M179 -16h290l41 -32c-5 -9 -15 -16 -26 -16h-328c-15 0 -28 12 -28 27c0 73 64 133 142 133h56l64 -50c-7 1 -13 2 -20 2h-100c-44 0 -81 -27 -91 -64zM397 162l234 -183c10 -8 12 -23 4 -34c-8 -10 -23 -12 -34 -4l-592 464c-10 8 -12 23 -4 34c5 6 12 9 19 9
c5 0 10 -2 15 -5l29 -23c15 17 36 28 60 28c44 0 80 -36 80 -80c0 -17 -6 -33 -15 -46l41 -32c19 27 50 46 86 46c57 0 104 -47 104 -104c0 -27 -11 -51 -27 -70zM359 192c10 10 17 24 17 40c0 31 -25 56 -56 56c-21 0 -38 -11 -48 -28zM512 288c-44 0 -80 36 -80 80
s36 80 80 80s80 -36 80 -80s-36 -80 -80 -80zM490 256h62c49 0 88 -42 88 -93c0 -11 -8 -19 -18 -19h-199c20 24 33 54 33 88c0 5 -1 10 -2 16c11 5 23 8 36 8zM187 205c5 -23 15 -44 30 -61h-199c-10 0 -18 8 -18 19c0 51 39 93 88 93h34z" />
    <glyph glyph-name="virus" unicode="&#xe074;" horiz-adv-x="576" 
d="M256 256c18 0 32 -14 32 -32s-14 -32 -32 -32s-32 14 -32 32s14 32 32 32zM336 168c13 0 24 -11 24 -24s-11 -24 -24 -24s-24 11 -24 24s11 24 24 24zM516 220c15 0 28 -12 28 -28s-13 -28 -28 -28h-22c-51 0 -76 -62 -40 -98l15 -15c11 -11 11 -29 0 -40
c-6 -6 -13 -8 -20 -8s-15 2 -20 8l-15 15c-12 12 -26 17 -40 17c-29 0 -58 -23 -58 -57v-22c0 -15 -12 -28 -28 -28s-28 13 -28 28v22c0 34 -29 57 -58 57c-14 0 -28 -5 -40 -17l-15 -15c-5 -6 -13 -8 -20 -8s-14 2 -20 8c-11 11 -11 29 0 40l15 15c36 36 11 98 -40 98h-22
c-15 0 -28 12 -28 28s13 28 28 28h22c51 0 76 62 40 98l-15 15c-11 11 -11 29 0 40c6 6 13 8 20 8s15 -2 20 -8l15 -15c12 -12 26 -17 40 -17c29 0 58 23 58 57v22c0 15 12 28 28 28s28 -13 28 -28v-22c0 -34 29 -57 58 -57c14 0 28 5 40 17l15 15c5 6 13 8 20 8
s14 -2 20 -8c11 -11 11 -29 0 -40l-15 -15c-36 -36 -11 -98 40 -98h22zM397 147c8 18 20 34 36 45c-16 11 -28 27 -36 45c-8 19 -10 38 -7 57c-5 -1 -11 -1 -16 -1c-36 0 -67 17 -86 44c-19 -27 -50 -44 -86 -44c-5 0 -11 0 -16 1c3 -19 1 -38 -7 -57
c-8 -18 -20 -34 -36 -45c16 -11 28 -27 36 -45c8 -19 10 -38 7 -57c5 1 11 1 16 1c36 0 67 -17 86 -44c19 27 50 44 86 44c5 0 11 0 16 -1c-3 19 -1 38 7 57z" />
    <glyph glyph-name="virus-slash" unicode="&#xe075;" horiz-adv-x="640" 
d="M320 47c8 12 19 21 32 29l43 -34c-25 -5 -47 -26 -47 -56v-22c0 -15 -12 -28 -28 -28s-28 13 -28 28v22c0 34 -29 57 -58 57c-14 0 -28 -5 -40 -17l-15 -15c-5 -6 -13 -8 -20 -8s-14 2 -20 8c-11 11 -11 29 0 40l15 15c36 36 11 98 -40 98h-22c-15 0 -28 12 -28 28
s13 28 28 28h22c14 0 27 6 36 14l38 -30c-4 -5 -8 -9 -13 -12c16 -11 28 -27 36 -45c8 -19 10 -38 7 -57c5 1 11 1 16 1c36 0 67 -17 86 -44zM631 -21c10 -8 12 -23 4 -34c-8 -10 -23 -12 -34 -4l-592 464c-10 8 -12 23 -4 34c5 6 12 9 19 9c5 0 10 -2 15 -5l96 -76
c1 2 2 4 4 6c6 6 13 8 20 8s15 -2 20 -8l15 -15c12 -12 26 -17 40 -17c29 0 58 23 58 57v22c0 15 12 28 28 28s28 -13 28 -28v-22c0 -34 29 -57 58 -57c14 0 28 5 40 17l15 15c5 6 13 8 20 8s14 -2 20 -8c11 -11 11 -29 0 -40l-15 -15c-36 -36 -11 -98 40 -98h22
c15 0 28 -12 28 -28s-13 -28 -28 -28h-22c-35 0 -57 -29 -56 -59zM429 147c8 18 20 34 36 45c-16 11 -28 27 -36 45c-8 19 -10 38 -7 57c-5 -1 -11 -1 -16 -1c-36 0 -67 17 -86 44c-19 -27 -50 -44 -86 -44h-4l197 -154c0 3 1 5 2 8z" />
    <glyph glyph-name="viruses" unicode="&#xe076;" horiz-adv-x="640" 
d="M224 256c9 0 16 -7 16 -16s-7 -16 -16 -16s-16 7 -16 16s7 16 16 16zM176 296c13 0 24 -11 24 -24s-11 -24 -24 -24s-24 11 -24 24s11 24 24 24zM624 96c9 0 16 -7 16 -16s-7 -16 -16 -16h-12c-29 0 -43 -34 -23 -55l9 -8c6 -6 6 -17 0 -23c-3 -3 -6 -4 -11 -4
s-9 1 -12 4l-8 9c-7 6 -15 9 -23 9c-16 0 -32 -13 -32 -32v-12c0 -9 -7 -16 -16 -16s-16 7 -16 16v12c0 19 -16 32 -32 32c-8 0 -16 -3 -23 -9l-8 -9c-3 -3 -6 -4 -11 -4s-9 1 -12 4c-6 6 -6 17 0 23l9 8c20 21 6 55 -23 55h-12c-9 0 -16 7 -16 16s7 16 16 16h12
c29 0 43 34 23 55l-9 8c-6 6 -6 17 0 23c3 3 6 4 11 4s9 -1 12 -4l8 -9c7 -6 15 -9 23 -9c16 0 32 13 32 32v12c0 9 7 16 16 16s16 -7 16 -16v-12c0 -19 16 -32 32 -32c8 0 16 3 23 9l8 9c3 3 6 4 11 4s9 -1 12 -4c6 -6 6 -17 0 -23l-9 -8c-20 -21 -6 -55 23 -55h12zM464 56
c13 0 24 11 24 24s-11 24 -24 24s-24 -11 -24 -24s11 -24 24 -24zM346 235c-38 0 -57 -46 -30 -73l12 -12c8 -8 8 -21 0 -30c-4 -4 -9 -6 -15 -6s-11 2 -15 6l-12 12c-9 8 -19 12 -30 12c-22 0 -43 -17 -43 -42v-17c0 -11 -9 -21 -21 -21s-21 10 -21 21v17
c0 25 -21 42 -43 42c-11 0 -21 -4 -30 -12l-12 -12c-4 -4 -10 -6 -15 -6s-11 2 -15 6c-8 9 -8 22 0 30l12 12c27 27 8 73 -30 73h-17c-11 0 -21 9 -21 21s10 21 21 21h16c38 0 58 46 31 73l-12 12c-8 8 -8 21 0 30c4 4 9 6 15 6s11 -2 15 -6l12 -12c9 -8 19 -12 30 -12
c22 0 43 17 43 42v17c0 11 9 21 21 21s21 -10 21 -21v-17c0 -25 21 -42 43 -42c11 0 21 4 30 12l12 12c4 4 10 6 15 6s11 -2 15 -6c8 -9 8 -22 0 -30l-12 -12c-27 -27 -8 -73 30 -73h17c11 0 21 -9 21 -21s-10 -21 -21 -21h-17zM263 227c4 11 11 21 19 29
c-8 8 -15 18 -19 29c-5 11 -7 23 -7 35c-25 0 -48 10 -64 26c-16 -16 -39 -26 -64 -26c0 -12 -2 -24 -7 -35c-4 -11 -11 -21 -19 -29c8 -8 15 -18 19 -29c5 -11 7 -23 7 -35c25 0 48 -10 64 -26c16 16 39 26 64 26c0 12 2 24 7 35z" />
    <glyph glyph-name="vest" unicode="&#xe085;" horiz-adv-x="448" 
d="M439 196c6 -7 9 -19 9 -30v-174c0 -31 -25 -56 -56 -56h-336c-31 0 -56 25 -56 56v174c0 11 3 23 10 32l38 65v129c0 28 21 51 48 55v1h39c9 0 18 -6 21 -14l10 -7c35 -23 81 -23 116 0l10 7c3 8 12 14 21 14h39v-1c27 -4 48 -27 48 -55v-129zM268 368
c-14 -4 -29 -6 -44 -6s-30 2 -44 6l44 -122zM52 -14c1 -1 2 -2 4 -2h136v168c0 3 0 5 1 8l6 14l-81 226h-14c-4 0 -8 -4 -8 -8v-136c0 -4 -1 -8 -3 -12l-43 -72c-1 -3 -2 -4 -2 -6v-116l55 55c9 9 25 9 34 0s9 -25 0 -34zM240 -16h152c2 0 3 1 4 2l-85 85c-9 9 -9 25 0 34
s25 9 34 0l55 -55v116c0 2 -1 3 -1 5l-44 73c-2 4 -3 8 -3 12v136c0 4 -4 8 -8 8h-14l-90 -252v-164z" />
    <glyph glyph-name="vest-patches" unicode="&#xe086;" horiz-adv-x="448" 
d="M439 196c6 -7 9 -19 9 -30v-174c0 -31 -25 -56 -56 -56h-336c-31 0 -56 25 -56 56v174c0 11 3 23 10 32l38 65v129c0 28 21 51 48 55v1h39c9 0 18 -6 21 -14l10 -7c35 -23 81 -23 116 0l10 7c3 8 12 14 21 14h39v-1c27 -4 48 -27 48 -55v-129zM193 160l6 14l-81 226h-14
c-4 0 -8 -4 -8 -8v-136c0 -4 -1 -8 -3 -12l-43 -72c-1 -3 -2 -4 -2 -6v-174c0 -4 4 -8 8 -8h136v168c0 3 0 5 1 8zM180 368l44 -122l44 122c-14 -4 -29 -6 -44 -6s-30 2 -44 6zM400 -8v174c0 2 -1 3 -1 5l-44 73c-2 4 -3 8 -3 12v136c0 4 -4 8 -8 8h-14l-90 -252v-164h152
c4 0 8 4 8 8zM342 161c13 1 25 -9 26 -22c1 -14 -10 -27 -25 -27h-48c-4 0 -7 3 -7 7v48c0 15 13 26 27 25c13 -1 23 -13 22 -26v-5h5zM112 88c22 0 40 -18 40 -40s-18 -40 -40 -40s-40 18 -40 40s18 40 40 40zM85 187c6 7 16 7 22 0l13 -12l13 12c6 7 15 6 22 0
s7 -16 0 -22l-12 -13l12 -13c7 -6 7 -16 0 -22c-3 -3 -7 -5 -11 -5s-8 2 -11 5l-13 12l-13 -12c-3 -3 -7 -5 -11 -5s-8 2 -11 5c-7 6 -7 16 0 22l12 13l-12 13c-7 6 -7 16 0 22z" />
    <glyph glyph-name="0" unicode="&#xe089;" horiz-adv-x="320" 
d="M160 416c88 0 160 -72 160 -160v-128c0 -88 -72 -160 -160 -160s-160 72 -160 160v128c0 88 72 160 160 160zM256 128v128c0 53 -43 96 -96 96s-96 -43 -96 -96v-128c0 -53 43 -96 96 -96s96 43 96 96z" />
    <glyph glyph-name="1" unicode="&#xe08a;" horiz-adv-x="256" 
d="M256 0c0 -18 -14 -32 -32 -32h-192c-18 0 -32 14 -32 32s14 32 32 32h64v292l-46 -31c-15 -9 -35 -5 -45 9c-9 15 -5 35 9 45l96 64c10 6 23 7 33 1c11 -5 17 -16 17 -28v-352h64c18 0 32 -14 32 -32z" />
    <glyph glyph-name="2" unicode="&#xe08b;" horiz-adv-x="320" 
d="M320 0c0 -18 -14 -32 -32 -32h-256c-13 0 -25 8 -30 21c-5 12 -1 26 9 35l201 181c16 16 25 37 25 60s-9 45 -26 61c-35 35 -91 35 -126 0l-31 -29c-13 -12 -33 -12 -45 1s-12 33 1 45l30 29c60 59 156 59 216 0c29 -28 45 -66 45 -107c0 -40 -16 -78 -45 -106l-141 -127
h173c18 0 32 -14 32 -32z" />
    <glyph glyph-name="3" unicode="&#xe08c;" horiz-adv-x="320" 
d="M320 105c0 -76 -61 -137 -137 -137h-78c-47 0 -89 30 -103 74c-6 17 3 35 20 41c17 5 35 -4 40 -21c6 -18 23 -30 43 -30h78c40 0 73 33 73 73s-33 72 -73 72h-87c-13 0 -25 8 -30 20s-2 26 7 35l121 120h-162c-18 0 -32 14 -32 32s14 32 32 32h240c13 0 25 -8 30 -20
s2 -26 -7 -35l-121 -120h9c76 0 137 -61 137 -136z" />
    <glyph glyph-name="4" unicode="&#xe08d;" horiz-adv-x="384" 
d="M384 128c0 -18 -14 -32 -32 -32h-32v-96c0 -18 -14 -32 -32 -32s-32 14 -32 32v96h-224c-11 0 -21 6 -27 15c-6 10 -7 21 -2 31l128 256c8 16 27 22 43 15c16 -8 23 -27 15 -43l-105 -210h172v128c0 18 14 32 32 32s32 -14 32 -32v-128h32c18 0 32 -14 32 -32z" />
    <glyph glyph-name="5" unicode="&#xe08e;" horiz-adv-x="320" 
d="M320 105c0 -76 -61 -137 -137 -137h-78c-47 0 -89 30 -103 74c-6 17 3 35 20 41c17 5 35 -4 40 -21c6 -18 23 -30 43 -30h78c40 0 73 33 73 73s-33 72 -73 72h-151c-10 0 -19 5 -25 12s-8 17 -6 26l32 175c2 15 16 26 31 26h192c18 0 32 -14 32 -32s-14 -32 -32 -32h-165
l-21 -111h113c76 0 137 -61 137 -136z" />
    <glyph glyph-name="6" unicode="&#xe08f;" horiz-adv-x="320" 
d="M316 166c11 -50 0 -101 -32 -139c-31 -38 -76 -59 -124 -59h-4c-86 2 -156 77 -156 166c0 45 16 89 45 123l122 148c12 13 32 15 46 4c13 -12 15 -32 4 -45l-64 -76c15 0 31 -1 47 -5c57 -14 102 -60 116 -117zM160 32c53 0 96 43 96 96s-43 96 -96 96s-96 -43 -96 -96
s43 -96 96 -96z" />
    <glyph glyph-name="7" unicode="&#xe090;" horiz-adv-x="320" 
d="M316 368l-224 -384c-6 -10 -17 -16 -28 -16c-6 0 -11 1 -16 4c-15 9 -21 29 -12 44l196 336h-200c-18 0 -32 14 -32 32s14 32 32 32h256c11 0 22 -6 28 -16c5 -10 5 -22 0 -32z" />
    <glyph glyph-name="8" unicode="&#xe091;" horiz-adv-x="320" 
d="M268 199c31 -24 52 -61 52 -103c0 -71 -57 -128 -128 -128h-64c-71 0 -128 57 -128 128c0 42 21 79 52 103c-22 23 -36 54 -36 89c0 71 57 128 128 128h32c71 0 128 -57 128 -128c0 -35 -14 -66 -36 -89zM144 352c-35 0 -64 -29 -64 -64s29 -64 64 -64h32
c35 0 64 29 64 64s-29 64 -64 64h-32zM192 32c35 0 64 29 64 64s-29 64 -64 64h-64c-35 0 -64 -29 -64 -64s29 -64 64 -64h64z" />
    <glyph glyph-name="9" unicode="&#xe092;" horiz-adv-x="320" 
d="M4 218c-11 50 0 101 32 139c31 38 76 59 124 59h4c86 -2 156 -77 156 -166c0 -45 -16 -89 -45 -123l-122 -148c-12 -13 -32 -15 -46 -4c-13 12 -15 32 -4 45l64 76c-15 0 -31 1 -47 5c-57 14 -102 60 -116 117zM160 352c-53 0 -96 -43 -96 -96s43 -96 96 -96s96 43 96 96
s-43 96 -96 96z" />
    <glyph glyph-name="a" unicode="&#xe093;" horiz-adv-x="384" 
d="M382 12c6 -16 -1 -35 -18 -42c-4 -1 -8 -2 -12 -2c-13 0 -24 7 -30 20l-25 60h-210l-25 -60c-7 -17 -26 -24 -42 -18c-17 7 -24 26 -18 42l160 384c5 12 17 20 30 20s25 -8 30 -20zM113 112h158l-79 189z" />
    <glyph glyph-name="alt" unicode="&#xe094;" 
d="M488 336h-92l-249 -327c-4 -6 -12 -9 -19 -9h-104c-13 0 -24 11 -24 24s11 24 24 24h92l249 327c4 6 12 9 19 9h104c13 0 24 -11 24 -24s-11 -24 -24 -24zM488 48c13 0 24 -11 24 -24s-11 -24 -24 -24h-144c-13 0 -24 11 -24 24s11 24 24 24h144z" />
    <glyph glyph-name="ampersand" unicode="&#xe095;" horiz-adv-x="384" 
d="M375 22c12 -13 12 -33 -1 -45c-6 -6 -14 -9 -22 -9c-9 0 -17 3 -23 10l-46 49v-1h-1v0c-25 -36 -66 -58 -110 -58h-60c-62 0 -112 50 -112 111c0 34 15 65 42 87l65 50l-30 32c-19 21 -29 47 -29 74c0 52 42 94 95 94h50c53 0 95 -42 95 -94c0 -29 -13 -56 -35 -73
l-52 -40l73 -78l51 78c10 15 30 19 44 10c15 -10 19 -30 10 -44l-60 -93zM143 352c-17 0 -31 -14 -31 -30c0 -11 4 -22 12 -30l34 -36l55 43c7 5 11 14 11 23c0 16 -14 30 -31 30h-50zM229 62l9 13l-87 94l-70 -54c-11 -8 -17 -22 -17 -36c0 -26 21 -47 48 -47h60
c23 0 44 11 57 30z" />
    <glyph glyph-name="arrow-down-left-and-arrow-up-right-to-center" unicode="&#xe096;" 
d="M287 211c-6 2 -11 7 -13 13c-1 3 -2 6 -2 9v144c0 13 11 24 24 24s24 -11 24 -24v-86l135 135c9 9 25 10 34 0s9 -25 0 -34l-135 -135h86c13 0 24 -11 24 -24s-11 -24 -24 -24h-144c-3 0 -6 0 -9 2zM225 175c6 -3 11 -7 13 -13c1 -3 2 -6 2 -9v-144
c0 -13 -11 -24 -24 -24s-24 11 -24 24v86l-135 -135c-9 -10 -25 -9 -34 0s-9 24 0 34l135 135h-86c-13 0 -24 11 -24 24s11 24 24 24h144c3 0 6 -1 9 -2z" />
    <glyph glyph-name="arrow-down-to-square" unicode="&#xe097;" horiz-adv-x="448" 
d="M384 320c35 0 64 -29 64 -64v-256c0 -35 -29 -64 -64 -64h-320c-35 0 -64 29 -64 64v256c0 35 29 64 64 64h40c13 0 24 -11 24 -24s-11 -24 -24 -24h-40c-9 0 -16 -7 -16 -16v-256c0 -9 7 -16 16 -16h320c9 0 16 7 16 16v256c0 9 -7 16 -16 16h-40c-13 0 -24 11 -24 24
s11 24 24 24h40zM206 72l-72 80c-9 10 -8 25 2 34c5 4 10 6 16 6c7 0 13 -3 18 -8l30 -34v274c0 13 11 24 24 24s24 -11 24 -24v-274l30 34c9 10 24 11 34 2s11 -24 2 -34l-72 -80c-9 -11 -27 -11 -36 0z" />
    <glyph glyph-name="arrow-up-arrow-down" unicode="&#xe098;" horiz-adv-x="384" 
d="M8 294c-10 9 -11 24 -2 34l72 80c9 10 27 10 36 0l72 -80c9 -10 8 -25 -2 -34s-25 -8 -34 2l-30 33v-337c0 -13 -11 -24 -24 -24s-24 11 -24 24v337l-30 -33c-5 -5 -11 -8 -18 -8c-6 0 -11 2 -16 6zM200 90c10 9 25 8 34 -2l30 -33v337c0 13 11 24 24 24s24 -11 24 -24
v-337l30 33c9 10 24 11 34 2s11 -24 2 -34l-72 -80c-5 -5 -11 -8 -18 -8s-13 3 -18 8l-72 80c-9 10 -8 25 2 34z" />
    <glyph glyph-name="arrow-up-from-square" unicode="&#xe099;" horiz-adv-x="448" 
d="M384 288c35 0 64 -29 64 -64v-224c0 -35 -29 -64 -64 -64h-320c-35 0 -64 29 -64 64v224c0 35 29 64 64 64h8c13 0 24 -11 24 -24s-11 -24 -24 -24h-8c-9 0 -16 -7 -16 -16v-224c0 -9 7 -16 16 -16h320c9 0 16 7 16 16v224c0 9 -7 16 -16 16h-8c-13 0 -24 11 -24 24
s11 24 24 24h8zM170 328c-9 -10 -24 -10 -34 -2c-10 9 -11 24 -2 34l72 80c9 11 27 11 36 0l72 -80c9 -10 8 -25 -2 -34c-5 -4 -10 -6 -16 -6c-7 0 -13 3 -18 8l-30 34v-242c0 -13 -11 -24 -24 -24s-24 11 -24 24v242z" />
    <glyph glyph-name="arrow-up-right-and-arrow-down-left-from-center" unicode="&#xe09a;" 
d="M497 446c6 -2 11 -7 13 -13c1 -3 2 -6 2 -9v-144c0 -13 -11 -24 -24 -24s-24 11 -24 24v86l-135 -135c-9 -9 -25 -9 -34 0s-9 25 0 34l135 135h-86c-13 0 -24 11 -24 24s11 24 24 24h144c3 0 6 -1 9 -2zM15 -62c-6 2 -11 7 -13 13c-1 3 -2 6 -2 9v144c0 13 11 24 24 24
s24 -11 24 -24v-86l135 135c9 9 25 9 34 0s9 -25 0 -34l-135 -135h86c13 0 24 -11 24 -24s-11 -24 -24 -24h-144c-3 0 -6 1 -9 2z" />
    <glyph glyph-name="arrows-minimize" unicode="&#xe09b;" 
d="M200 416c13 0 24 -11 24 -24v-144c0 -3 -1 -6 -2 -9c-2 -6 -7 -11 -13 -13c-3 -1 -6 -2 -9 -2h-144c-13 0 -24 11 -24 24s11 24 24 24h86l-119 119c-9 9 -9 25 0 34s25 9 34 0l119 -119v86c0 13 11 24 24 24zM303 226c-6 2 -11 7 -13 13c-1 3 -2 6 -2 9v144
c0 13 11 24 24 24s24 -11 24 -24v-86l119 119c9 9 25 9 34 0s9 -25 0 -34l-119 -119h86c13 0 24 -11 24 -24s-11 -24 -24 -24h-144c-3 0 -6 1 -9 2zM370 112l119 -119c9 -9 9 -25 0 -34s-25 -9 -34 0l-119 119v-86c0 -13 -11 -24 -24 -24s-24 11 -24 24v144c0 3 1 6 2 9
c2 6 7 11 13 13c3 1 6 2 9 2h144c13 0 24 -11 24 -24s-11 -24 -24 -24h-86zM209 158c6 -2 11 -7 13 -13c1 -3 2 -6 2 -9v-144c0 -13 -11 -24 -24 -24s-24 11 -24 24v86l-119 -119c-9 -9 -25 -9 -34 0s-9 25 0 34l119 119h-86c-13 0 -24 11 -24 24s11 24 24 24h144
c3 0 6 -1 9 -2z" />
    <glyph glyph-name="austral-sign" unicode="&#xe09c;" horiz-adv-x="448" 
d="M424 128c13 0 24 -11 24 -24s-11 -24 -24 -24h-43l33 -79c5 -12 0 -26 -13 -31c-3 -1 -6 -2 -9 -2c-9 0 -18 6 -22 15l-41 97h-210l-41 -97c-5 -13 -19 -18 -31 -13c-13 5 -18 19 -13 31l33 79h-43c-13 0 -24 10 -24 24s11 24 24 25h63l20 48h-83c-13 0 -24 10 -24 24
c0 13 11 24 24 24h103l75 178c7 17 37 17 44 0l75 -178h103c13 0 24 -11 24 -24c0 -14 -11 -24 -24 -24h-83l20 -49h63zM224 331l-45 -106h90zM139 128h170l-20 49h-130z" />
    <glyph glyph-name="b" unicode="&#xe09d;" horiz-adv-x="320" 
d="M268 199c31 -24 52 -61 52 -103c0 -71 -57 -128 -128 -128h-160c-18 0 -32 14 -32 32v384c0 18 14 32 32 32h144c71 0 128 -57 128 -128c0 -35 -14 -66 -36 -89zM64 352v-128h112c35 0 64 29 64 64s-29 64 -64 64h-112zM192 32c35 0 64 29 64 64s-29 64 -64 64h-128v-128
h128z" />
    <glyph glyph-name="baht-sign" unicode="&#xe09e;" horiz-adv-x="320" 
d="M261 211c35 -19 59 -56 59 -98c0 -61 -50 -111 -110 -112h-42v-41c0 -13 -11 -24 -24 -24s-24 11 -24 24v40c-23 -1 -44 -1 -61 -1c-16 0 -29 0 -37 1c-12 1 -22 11 -22 24v336c0 13 11 24 24 24h96v40c0 13 11 24 24 24s24 -11 24 -24v-40h16c57 0 104 -47 104 -104
c0 -27 -10 -51 -27 -69zM184 336h-16v-112h16c31 0 56 25 56 56s-25 56 -56 56zM48 336v-112h72v112h-72zM48 47c19 0 45 0 72 1v128h-72v-129zM209 49c35 1 63 29 63 64s-28 63 -63 63h-41v-127h41z" />
    <glyph glyph-name="basket-shopping-simple" unicode="&#xe09f;" horiz-adv-x="576" 
d="M552 256c13 0 24 -11 24 -24s-11 -24 -24 -24h-19l-45 -215c-7 -33 -37 -57 -71 -57h-258c-34 0 -64 24 -71 57l-45 215h-19c-13 0 -24 11 -24 24s11 24 24 24h137l56 175c4 13 18 20 30 16c13 -4 20 -18 16 -30l-52 -161h154l-52 161c-4 12 3 26 16 30
c12 4 26 -3 30 -16l56 -175h137zM441 3l43 205h-53l8 -25c4 -12 -3 -26 -16 -30c-2 -1 -5 -1 -7 -1c-10 0 -20 6 -23 17l-13 39h-184l-13 -39c-3 -11 -13 -17 -23 -17c-2 0 -5 0 -7 1c-13 4 -20 18 -16 30l8 25h-53l43 -205c3 -11 13 -19 24 -19h258c11 0 21 8 24 19z" />
    <glyph glyph-name="battery-exclamation" unicode="&#xe0a0;" horiz-adv-x="576" 
d="M48 96c0 -9 7 -16 16 -16h144c-10 -13 -16 -30 -16 -48h-128c-35 0 -64 29 -64 64v192c0 35 29 64 64 64h136v-48h-136c-9 0 -16 -7 -16 -16v-192zM544 256c18 0 32 -14 32 -32v-64c0 -18 -14 -32 -32 -32v-32c0 -35 -29 -64 -64 -64h-128c0 18 -6 35 -16 48h144
c9 0 16 7 16 16v192c0 9 -7 16 -16 16h-136v48h136c35 0 64 -29 64 -64v-32zM272 112c-13 0 -24 11 -24 24v224c0 13 11 24 24 24s24 -11 24 -24v-224c0 -13 -11 -24 -24 -24zM272 64c18 0 32 -14 32 -32s-14 -32 -32 -32s-32 14 -32 32s14 32 32 32z" />
    <glyph glyph-name="battery-low" unicode="&#xe0a1;" horiz-adv-x="576" 
d="M96 128v128h48v-128h-48zM544 256c18 0 32 -14 32 -32v-64c0 -18 -14 -32 -32 -32v-32c0 -35 -29 -64 -64 -64h-416c-35 0 -64 29 -64 64v192c0 35 29 64 64 64h416c35 0 64 -29 64 -64v-32zM496 96v192c0 9 -7 16 -16 16h-416c-9 0 -16 -7 -16 -16v-192
c0 -9 7 -16 16 -16h416c9 0 16 7 16 16z" />
    <glyph glyph-name="bee" unicode="&#xe0a2;" horiz-adv-x="576" 
d="M448 352c71 0 128 -50 128 -112v0c0 -62 -57 -112 -128 -112v0c-7 0 -14 1 -21 2c-13 -100 -139 -194 -139 -194s-126 94 -139 194c-7 -1 -14 -2 -21 -2v0c-71 0 -128 50 -128 112v0c0 62 57 112 128 112v0c28 0 55 -10 81 -23c-1 2 -1 5 -1 7c0 20 8 39 20 53l-31 32
c-7 6 -6 15 0 22s16 7 22 0l35 -35c11 5 22 8 34 8s23 -3 34 -8l35 35c6 7 15 6 22 0s7 -16 0 -22l-31 -32c12 -14 20 -33 20 -53c0 -2 0 -5 -1 -7c26 13 53 23 81 23v0zM196 144c0 -10 3 -21 7 -32h170c4 11 7 22 7 32h-184zM207 192h162c-4 7 -9 15 -15 21
c-18 17 -41 27 -66 27v0c-25 0 -48 -10 -66 -27c-6 -6 -11 -14 -15 -21zM151 179c9 38 33 70 66 89c-28 20 -60 36 -89 36v0c-44 0 -80 -29 -80 -64s36 -64 80 -64c8 0 15 1 23 3zM288 -1c19 17 41 40 58 65h-116c17 -25 39 -48 58 -65zM448 176c44 0 80 29 80 64
s-36 64 -80 64v0c-29 0 -61 -16 -89 -36c33 -19 57 -51 66 -89c8 -2 15 -3 23 -3z" />
    <glyph glyph-name="beer-mug" unicode="&#xe0a3;" 
d="M408 291c49 0 88 -39 88 -88v-86c0 -35 -21 -66 -53 -80l-76 -35c-7 -37 -40 -66 -79 -66h-192c-44 0 -80 36 -80 80v288c-14 19 -19 42 -14 66c6 30 29 54 58 62c21 5 43 2 61 -10c4 -2 6 0 7 1c35 33 93 33 128 0c1 -1 3 -3 7 -1c18 12 40 15 61 10
c29 -8 52 -32 58 -62c5 -24 0 -47 -14 -66v-13h40zM320 16v257c-21 -4 -43 -1 -60 11c0 0 -2 0 -4 -2c-17 -17 -40 -26 -64 -26s-47 9 -64 26c-2 2 -3 2 -4 2c-18 -12 -40 -15 -60 -11v-257c0 -18 14 -32 32 -32h192c18 0 32 14 32 32zM328 330c7 9 9 19 7 30
c-2 12 -12 22 -23 25s-19 0 -24 -3c-21 -14 -47 -11 -65 6c-17 16 -45 16 -62 0c-18 -17 -44 -20 -65 -6c-5 3 -13 6 -24 3s-21 -13 -23 -25c-2 -11 0 -21 7 -30c10 -12 28 -15 41 -6c8 6 18 8 27 8c13 0 26 -5 37 -15c17 -16 45 -16 62 0c18 18 44 21 64 7
c13 -9 31 -6 41 6zM448 117v86c0 22 -18 40 -40 40h-40v-187l56 24c15 7 24 21 24 37zM144 208v-168c0 -9 -7 -16 -16 -16s-16 7 -16 16v168c0 9 7 16 16 16s16 -7 16 -16zM208 208v-168c0 -9 -7 -16 -16 -16s-16 7 -16 16v168c0 9 7 16 16 16s16 -7 16 -16zM272 208v-168
c0 -9 -7 -16 -16 -16s-16 7 -16 16v168c0 9 7 16 16 16s16 -7 16 -16z" />
    <glyph glyph-name="bitcoin-sign" unicode="&#xe0a4;" horiz-adv-x="320" 
d="M261 211c35 -19 59 -56 59 -98c0 -61 -50 -111 -110 -112h-10v-41c0 -13 -11 -24 -24 -24s-24 11 -24 24v40h-6h-42v-40c0 -13 -11 -24 -24 -24s-24 11 -24 24v39c-15 0 -27 1 -34 1c-12 1 -22 11 -22 24v336c0 13 11 24 24 24h32v40c0 13 11 24 24 24s24 -11 24 -24v-40
h48v40c0 13 11 24 24 24s24 -11 24 -24v-42c50 -7 88 -50 88 -102c0 -27 -10 -51 -27 -69zM48 336v-112h136c31 0 56 25 56 56s-25 56 -56 56h-136zM209 49c35 1 63 29 63 64s-28 63 -63 63h-161v-129c24 0 61 1 97 1c21 1 44 1 64 1z" />
    </font>
</defs>
</svg>
